<?xml version="1.0" standalone="no"?>
<!DOCTYPE svg PUBLIC "-//W3C//DTD SVG 1.1//EN" "http://www.w3.org/Graphics/SVG/1.1/DTD/svg11.dtd" >
<svg xmlns="http://www.w3.org/2000/svg" xmlns:xlink="http://www.w3.org/1999/xlink" version="1.1">
<metadata>
Created by FontForge 20201107 at Mon Nov 28 19:35:47 2005
 By Unknown
Generated by Fontographer 4.1
</metadata>
<defs>
<font id="Wkoodak" horiz-adv-x="0" >
  <font-face 
    font-family="W_koodak"
    font-weight="400"
    font-stretch="normal"
    units-per-em="1100"
    panose-1="0 0 4 0 0 0 0 0 0 0"
    ascent="880"
    descent="-220"
    bbox="-231 -772 1376 1371.04"
    underline-thickness="20"
    underline-position="-143"
    unicode-range="U+0020-FE87"
  />
<missing-glyph horiz-adv-x="550" 
d="M69 0v700h412v-700h-412zM138 69h275v562h-275v-562z" />
    <glyph glyph-name="uniFE50" unicode="&#xfe5b;&#xfe00;" horiz-adv-x="584" 
d="M319 117q81 24 109 63q33 47 34 152q0 29 -4 85l-21 249q-4 44 17 70q17 24 47 25q24 1 44 -22q15 -18 23 -64l14 -277q2 -42 2 -50q0 -376 -371 -377q-108 0 -108 65q0 47 70 58q48 7 144 23zM228 193q4 45 4 84q0 189 -94 349q-13 27 -14 47q-1 27 16 47t46 20
q67 0 114 -135q45 -128 45 -289q0 -78 -10 -131t-60 -53q-53 0 -47 61z" />
    <glyph glyph-name="uniFE51" unicode="&#xfe5a;&#xfe00;" horiz-adv-x="703" 
d="M321 118q79 21 107 61q33 48 34 153q0 29 -4 85l-21 249q-4 44 17 70q17 24 47 25q24 1 44 -22q15 -18 23 -64l14 -277q7 -132 26 -186q25 -68 89 -68h25v-144h-39q-60 0 -101 36q-41 29 -52 78q-67 -141 -322 -143q-102 0 -103 68q-1 42 64 53q91 16 152 26zM228 193
q4 45 4 84q0 189 -94 349q-13 27 -14 47q-1 27 16 47t46 20q67 0 114 -135q45 -128 45 -289q0 -78 -10 -131t-60 -53q-53 0 -47 61z" />
    <glyph glyph-name="uniFE52" unicode="&#xfe5b;&#xfe01;" horiz-adv-x="584" 
d="M319 117q81 24 109 63q33 47 34 152q0 29 -4 85l-21 249q-4 44 17 70q17 24 47 25q24 1 44 -22q15 -18 23 -64l14 -277q2 -42 2 -50q0 -376 -371 -377q-108 0 -108 65q0 47 70 58q48 7 144 23zM228 193q4 45 4 84q0 189 -94 349q-13 27 -14 47q-1 27 16 47t46 20
q67 0 114 -135q45 -128 45 -289q0 -78 -10 -131t-60 -53q-53 0 -47 61zM458 993q0 -47 -40 -84q-42 -40 -106 -41q-26 -1 -77 3t-75 4q-50 0 -71 -18q-8 -7 -24 -35q-14 -19 -32 -19q-24 0 -24 24q-1 45 35 88t98 43q44 0 84 -3q52 -5 80 -5q55 0 82.5 33t49.5 33
q20 0 20 -23z" />
    <glyph glyph-name="exclamdown" unicode="&#xfe5a;&#xfe01;" horiz-adv-x="703" 
d="M321 118q79 21 107 61q33 48 34 153q0 29 -4 85l-21 249q-4 44 17 70q17 24 47 25q24 1 44 -22q15 -18 23 -64l14 -277q7 -132 26 -186q25 -68 89 -68h25v-144h-39q-60 0 -101 36q-41 29 -52 78q-67 -141 -322 -143q-102 0 -103 68q-1 42 64 53q91 16 152 26zM228 193
q4 45 4 84q0 189 -94 349q-13 27 -14 47q-1 27 16 47t46 20q67 0 114 -135q45 -128 45 -289q0 -78 -10 -131t-60 -53q-53 0 -47 61zM458 993q0 -47 -40 -84q-42 -40 -106 -41q-26 -1 -77 3t-75 4q-50 0 -71 -18q-8 -7 -24 -35q-14 -19 -32 -19q-24 0 -24 24q-1 45 35 88
t98 43q44 0 84 -3q52 -5 80 -5q55 0 82.5 33t49.5 33q20 0 20 -23z" />
    <glyph glyph-name="cent" unicode="&#xfe5b;&#xfe03;" horiz-adv-x="584" 
d="M319 117q81 24 109 63q33 47 34 152q0 29 -4 85l-21 249q-4 44 17 70q17 24 47 25q24 1 44 -22q15 -18 23 -64l14 -277q2 -42 2 -50q0 -376 -371 -377q-108 0 -108 65q0 47 70 58q48 7 144 23zM228 193q4 45 4 84q0 189 -94 349q-13 27 -14 47q-1 27 16 47t46 20
q67 0 114 -135q45 -128 45 -289q0 -78 -10 -131t-60 -53q-53 0 -47 61zM342 859l-210 -67q-7 -1 -18 -3q-27 0 -28 24q-1 22 30 36l36 13q-34 33 -34 74q0 46 36 79q33 30 79 30q31 0 55.5 -13t25.5 -32q0 -23 -22 -23q-6 0 -30 2q-15 4 -32 4q-46 0 -47 -39q-2 -44 71 -45
q9 0 74 20q16 3 19 3q33 0 33 -25q0 -26 -38 -38z" />
    <glyph glyph-name="sterling" unicode="&#xfe5a;&#xfe03;" horiz-adv-x="703" 
d="M321 118q79 21 107 61q33 48 34 153q0 29 -4 85l-21 249q-4 44 17 70q17 24 47 25q24 1 44 -22q15 -18 23 -64l14 -277q7 -132 26 -186q25 -68 89 -68h25v-144h-39q-60 0 -101 36q-41 29 -52 78q-67 -141 -322 -143q-102 0 -103 68q-1 42 64 53q91 16 152 26zM228 193
q4 45 4 84q0 189 -94 349q-13 27 -14 47q-1 27 16 47t46 20q67 0 114 -135q45 -128 45 -289q0 -78 -10 -131t-60 -53q-53 0 -47 61zM342 859l-210 -67q-7 -1 -18 -3q-27 0 -28 24q-1 22 30 36l36 13q-34 33 -34 74q0 46 36 79q33 30 79 30q31 0 55.5 -13t25.5 -32
q0 -23 -22 -23q-6 0 -30 2q-15 4 -32 4q-46 0 -47 -39q-2 -44 71 -45q9 0 74 20q16 3 19 3q33 0 33 -25q0 -26 -38 -38z" />
    <glyph glyph-name="currency" unicode="&#xfe5b;&#xfe05;" horiz-adv-x="584" 
d="M319 117q81 24 109 63q33 47 34 152q0 29 -4 85l-21 249q-4 44 17 70q17 24 47 25q24 1 44 -22q15 -18 23 -64l14 -277q2 -42 2 -50q0 -376 -371 -377q-108 0 -108 65q0 47 70 58q48 7 144 23zM228 193q4 45 4 84q0 189 -94 349q-13 27 -14 47q-1 27 16 47t46 20
q67 0 114 -135q45 -128 45 -289q0 -78 -10 -131t-60 -53q-53 0 -47 61zM425 -271l-210 -67q-7 -1 -18 -3q-28 0 -29 24q0 22 30 36l36 14q-34 32 -34 73q0 47 37 80q32 29 79 29q31 0 55 -12.5t25 -32.5q1 -23 -22 -23q-5 0 -30 2q-14 5 -32 5q-45 0 -47 -40q-2 -43 72 -45
q9 0 73 20q17 3 19 3q33 0 33 -25q0 -26 -37 -38z" />
    <glyph glyph-name="yen" unicode="&#xfe5a;&#xfe05;" horiz-adv-x="703" 
d="M321 118q79 21 107 61q33 48 34 153q0 29 -4 85l-21 249q-4 44 17 70q17 24 47 25q24 1 44 -22q15 -18 23 -64l14 -277q7 -132 26 -186q25 -68 89 -68h25v-144h-39q-60 0 -101 36q-41 29 -52 78q-67 -141 -322 -143q-102 0 -103 68q-1 42 64 53q91 16 152 26zM228 193
q4 45 4 84q0 189 -94 349q-13 27 -14 47q-1 27 16 47t46 20q67 0 114 -135q45 -128 45 -289q0 -78 -10 -131t-60 -53q-53 0 -47 61zM425 -271l-210 -67q-7 -1 -18 -3q-28 0 -29 24q0 22 30 36l36 14q-34 32 -34 73q0 47 37 80q32 29 79 29q31 0 55 -12.5t25 -32.5
q1 -23 -22 -23q-5 0 -30 2q-14 5 -32 5q-45 0 -47 -40q-2 -43 72 -45q9 0 73 20q17 3 19 3q33 0 33 -25q0 -26 -37 -38z" />
    <glyph glyph-name="Egrave" unicode="&#xfe5b;&#xfe5a;&#xfe64;" horiz-adv-x="909" arabic-form="isolated" 
d="M605 822q0 -28 -20 -28q-14 0 -17 27l-12 92q-5 34 26 35q23 1 23 -32v-94zM715 754q4 -22 4 -38q0 -46 -21 -78t-61 -32q-34 0 -54 32q-20 -54 -77 -54t-57 76q0 24 13 58q9 17 23 17q22 0 19 -29q-5 -46 19 -46q37 0 48 69q4 28 23 28q15 0 19 -25q1 -55 32 -55
q27 0 27 40q0 12 -2 28q-6 38 20 38q19 0 25 -29zM902 193q-20 -200 -167 -200q-94 0 -138 85q-46 -77 -140 -78q-60 -1 -104 30.5t-54 88.5q-36 -15 -75 -17q-51 -1 -100.5 27t-49.5 72q-1 55 39 100q28 31 81.5 64t72.5 49q8 10 38 57q18 30 48 30q43 0 43 -66q0 4 -2 -70
t-2 -87q0 -70 16 -101t58 -33q34 -1 57 31q18 26 15 78l-12 221q-2 36 17 60q17 20 40 20q54 0 57 -68l8 -182q7 -164 80 -164q60 0 66 90q8 119 -15 268q-2 14 -2 22q0 31 17 54q20 20 40 20q50 1 60 -70q15 -100 15 -197q0 -68 -7 -134zM294 319q-17 -11 -73 -45
q-35 -20 -38 -42q0 -18 45 -19q42 0 64 13q-2 28 2 93z" />
    <glyph glyph-name="agrave" unicode="&#x651;&#x64e;" arabic-form="isolated" 
d="M246 1160l-238 -74q-6 0 -8 -1q-27 0 -28 29q0 23 26 32l230 72q7 2 12 2q31 0 32 -31q0 -18 -26 -29zM253 999q1 -45 -21 -79q-26 -39 -69 -39q-42 -1 -57 41q-25 -64 -86 -65q-60 0 -61 80q0 34 15 62q6 18 22 18q19 0 16 -28q-1 -9 -1 -17q0 -38 26 -39q44 -1 57 83
q3 25 22 25q15 0 18 -24q2 -63 40 -63q21 0 30 31q2 17 1 48q0 4 -1 9q0 28 20 28q27 0 29 -71z" />
    <glyph glyph-name="acircumflex" unicode="&#x651;&#x650;" arabic-form="isolated" 
d="M235 933l-238 -73q-6 0 -10 -1q-27 0 -27 28q0 23 26 31l230 74q5 0 13 2q28 0 32 -30q0 -23 -26 -31zM249 1187q4 -18 4 -39q1 -48 -20 -81q-25 -38 -70 -38q-43 0 -57 41q-25 -65 -86 -66q-60 -2 -61 79q0 33 15 65q7 15 22 15q19 0 16 -27q-1 -10 -1 -18q0 -37 26 -37
q44 -1 57 80q4 25 22 25q15 0 18 -24q2 -60 40 -61q21 -1 30 30q2 19 1 49q0 3 -1 7q0 29 20 29q19 0 25 -29z" />
    <glyph glyph-name="adieresis" unicode="&#x651;&#x64f;" arabic-form="isolated" 
d="M253 999q1 -45 -21 -79q-26 -39 -69 -39q-42 -1 -57 41q-25 -64 -86 -65q-60 0 -61 80q0 34 15 62q6 18 22 18q19 0 16 -28q-1 -9 -1 -17q0 -38 26 -39q44 -1 57 83q3 25 22 25q15 0 18 -24q2 -63 40 -63q21 0 30 31q2 17 1 48q0 4 -1 9q0 28 20 28q27 0 29 -71z
M261 1301q0 -65 -62 -115q21 -16 22 -32q1 -20 -26 -20q-22 0 -40 17q-138 -71 -192 -72q-33 -1 -33 27q0 21 27 28q87 21 149 60q-28 26 -28 64q0 46 36 81q32 31 72 32q28 1 51.5 -20.5t23.5 -49.5zM207 1279q0 35 -33 35q-19 0 -32 -15t-13 -35q0 -27 28 -42q16 5 33 23
t17 34z" />
    <glyph glyph-name="ae" unicode="&#x651;&#x64b;" arabic-form="isolated" 
d="M253 999q1 -45 -21 -79q-26 -39 -69 -39q-42 -1 -57 41q-25 -64 -86 -65q-60 0 -61 80q0 34 15 62q6 18 22 18q19 0 16 -28q-1 -9 -1 -17q0 -38 26 -39q44 -1 57 83q3 25 22 25q15 0 18 -24q2 -63 40 -63q21 0 30 31q2 17 1 48q0 4 -1 9q0 28 20 28q27 0 29 -71z
M229 1274l-238 -73q-3 -1 -11 -1q-26 0 -26 27q0 23 25 31l231 75q4 0 14 2q30 0 30 -32q0 -21 -25 -29zM235 1154l-238 -73q-6 0 -10 -1q-27 0 -27 28q0 22 26 30l230 74q5 1 13 3q28 0 32 -31q0 -22 -26 -30z" />
    <glyph glyph-name="egrave" unicode="&#x651;&#x64d;" arabic-form="isolated" 
d="M250 1300q3 -17 3 -40q0 -48 -20 -81q-24 -40 -69 -41q-43 -1 -58 44q-23 -65 -85 -66q-61 -1 -61 79q0 38 15 65q5 15 22 15q19 0 16 -27q-1 -10 -1 -18q0 -36 27 -37q42 -1 55 80q3 26 22 26q18 0 18 -25q1 -60 41 -62q21 -1 29 32q4 21 1 47v9q0 27 19 27q20 0 26 -27
zM229 1054l-238 -74q-3 -2 -11 -2q-26 0 -26 29q0 22 25 30l231 73q4 1 14 3q30 0 30 -30q0 -21 -25 -29zM235 933l-238 -73q-6 0 -10 -1q-27 0 -27 28q0 23 26 31l230 74q5 0 13 2q28 0 32 -30q0 -23 -26 -31z" />
    <glyph glyph-name="ecircumflex" unicode="&#x651;&#x64c;" arabic-form="final" 
d="M253 999q1 -45 -21 -79q-26 -39 -69 -39q-42 -1 -57 41q-25 -64 -86 -65q-60 0 -61 80q0 34 15 62q6 18 22 18q19 0 16 -28q-1 -9 -1 -17q0 -38 26 -39q44 -1 57 83q3 25 22 25q15 0 18 -24q2 -63 40 -63q21 0 30 31q2 17 1 48q0 4 -1 9q0 28 20 28q27 0 29 -71z
M261 1296q0 -64 -62 -114q20 -15 22 -32q0 -21 -26 -21q-22 0 -40 18q-139 -74 -192 -74q-33 0 -33 28q0 20 27 28q8 2 20 7q22 15 22 42q0 17 -24 17q-19 0 -34 -10q-9 -5 -16 -5q-14 0 -14 16q0 11 12 24q23 26 63 26q34 0 47 -20q8 -12 10 -32q0 -16 -10 -43q21 9 73 36
q-28 30 -28 65q0 47 36 83q31 30 72 31q28 0 51.5 -20.5t23.5 -49.5zM207 1274q0 37 -33 37q-12 0 -32 -17q-13 -13 -13 -33q0 -27 28 -45q50 22 50 58z" />
    <glyph glyph-name="Oacute" unicode="&#xfe71;" arabic-form="medial" 
d="M312 733l-238 -73q-6 0 -10 -1q-27 0 -27 28q0 23 26 31l230 74q5 0 13 2q28 0 32 -30q0 -23 -26 -31z" />
    <glyph glyph-name="Otilde" unicode="&#xfe72;" arabic-form="isolated" 
d="M312 -137l-238 -74q-6 0 -10 -1q-27 0 -27 29q0 23 26 31l230 72q6 4 13 4q28 0 32 -32q0 -21 -26 -29z" />
    <glyph glyph-name="Ugrave" unicode="&#xfe74;" arabic-form="isolated" 
d="M306 860l-238 -75q-6 0 -11 -1q-26 0 -26 29q0 22 25 30l231 74q4 1 14 2q30 0 30 -30q0 -21 -25 -29zM312 733l-238 -73q-6 0 -10 -1q-27 0 -27 28q0 23 26 31l230 74q5 0 13 2q28 0 32 -30q0 -23 -26 -31z" />
    <glyph glyph-name="Yacute" unicode="&#xfe76;" arabic-form="isolated" 
d="M338 876q0 -65 -62 -112q21 -17 22 -34q0 -21 -26 -22q-19 -1 -40 19q-135 -72 -192 -73q-33 0 -33 27q0 21 27 27q7 2 20 9q22 13 22 41q0 16 -24 16q-17 0 -34 -8q-7 -5 -16 -5q-14 0 -14 15q0 14 12 23q22 26 63 26q34 0 47 -18q9 -15 10 -34q1 -16 -10 -41
q33 14 73 37q-28 27 -28 65q0 41 33 77t75 36q34 0 54.5 -22.5t20.5 -48.5zM284 856q0 35 -33 35q-17 0 -31 -16.5t-14 -33.5q0 -26 28 -44q13 3 33 23q17 20 17 36z" />
    <glyph glyph-name="germandbls" unicode="&#xfe77;" arabic-form="medial" 
d="M330 799q1 -45 -21 -79q-26 -39 -69 -39q-42 -1 -57 41q-25 -64 -86 -64q-60 -1 -61 79q0 34 15 62q6 18 22 18q19 0 16 -27q-1 -10 -1 -18q0 -38 26 -39q44 -1 57 83q3 25 22 25q15 0 18 -24q2 -63 40 -63q21 0 30 31q2 17 1 49q0 3 -1 8q0 28 20 28q27 0 29 -71z" />
    <glyph glyph-name="aacute" unicode="&#xfe79;" arabic-form="medial" 
d="M323 960l-238 -74q-6 0 -8 -1q-27 0 -27 29q-1 23 25 32l230 72q7 3 12 3q31 0 32 -32q0 -18 -26 -29zM330 799q1 -45 -21 -79q-26 -39 -69 -39q-42 -1 -57 41q-25 -64 -86 -64q-60 -1 -61 79q0 34 15 62q6 18 22 18q19 0 16 -27q-1 -10 -1 -18q0 -38 26 -39q44 -1 57 83
q3 25 22 25q15 0 18 -24q2 -63 40 -63q21 0 30 31q2 17 1 49q0 3 -1 8q0 28 20 28q27 0 29 -71z" />
    <glyph glyph-name="atilde" unicode="&#xfe7b;" arabic-form="medial" 
d="M312 733l-238 -73q-6 0 -10 -1q-27 0 -27 28q0 23 26 31l230 74q5 0 13 2q28 0 32 -30q0 -23 -26 -31zM326 988q4 -19 4 -40q1 -48 -20 -81q-25 -38 -70 -38q-43 0 -57 41q-25 -65 -86 -66q-60 -2 -61 79q0 33 15 65q7 15 22 15q19 0 16 -27q-1 -10 -1 -18q0 -37 26 -37
q44 -1 57 80q4 25 22 25q15 0 18 -24q2 -60 40 -61q21 -1 30 30q2 19 1 49q0 3 -1 8q0 28 20 28q19 0 25 -28z" />
    <glyph glyph-name="aring" unicode="&#xfe7d;" arabic-form="medial" 
d="M330 799q1 -45 -21 -79q-26 -39 -69 -39q-42 -1 -57 41q-25 -64 -86 -64q-60 -1 -61 79q0 34 15 62q6 18 22 18q19 0 16 -27q-1 -10 -1 -18q0 -38 26 -39q44 -1 57 83q3 25 22 25q15 0 18 -24q2 -63 40 -63q21 0 30 31q2 17 1 49q0 3 -1 8q0 28 20 28q27 0 29 -71z
M338 1101q0 -65 -62 -115q21 -16 22 -31q1 -21 -26 -21q-22 0 -40 17q-138 -71 -192 -72q-33 -1 -33 27q0 21 27 28q87 21 149 60q-28 26 -28 64q0 46 36 81q32 31 72 32q28 1 51.5 -20.5t23.5 -49.5zM284 1079q0 35 -33 35q-19 0 -32 -15t-13 -34q0 -28 28 -43q16 5 33 23
t17 34z" />
    <glyph glyph-name="ccedilla" unicode="&#xfe7f;" arabic-form="medial" 
d="M330 799q1 -45 -21 -79q-26 -39 -69 -39q-42 -1 -57 41q-25 -64 -86 -64q-60 -1 -61 79q0 34 15 62q6 18 22 18q19 0 16 -27q-1 -10 -1 -18q0 -38 26 -39q44 -1 57 83q3 25 22 25q15 0 18 -24q2 -63 40 -63q21 0 30 31q2 17 1 49q0 3 -1 8q0 28 20 28q27 0 29 -71z
M306 1074l-238 -73q-3 -1 -11 -1q-26 0 -26 27q0 23 25 31l231 75q4 0 14 2q30 0 30 -32q0 -21 -25 -29zM312 955l-238 -74q-6 0 -10 -1q-27 0 -27 28q0 22 26 30l230 74q5 1 13 3q28 0 32 -31q0 -22 -26 -29z" />
    <glyph glyph-name="eacute" unicode="&#x622;" arabic-form="isolated" 
d="M327 1100q3 -17 3 -40q0 -48 -20 -81q-24 -40 -69 -41q-43 -1 -58 44q-23 -65 -85 -66q-61 -1 -61 79q0 38 15 65q5 16 22 16q19 0 16 -28q-1 -10 -1 -18q0 -36 27 -37q42 -1 55 80q3 26 22 26q18 0 18 -25q1 -60 41 -62q21 -1 29 32q4 21 1 47v9q0 27 19 27q20 0 26 -27
zM306 854l-238 -74q-3 -1 -11 -1q-26 0 -26 28q0 22 25 30l231 74q4 0 14 2q30 0 30 -30q0 -21 -25 -29zM312 733l-238 -73q-6 0 -10 -1q-27 0 -27 28q0 23 26 31l230 74q5 0 13 2q28 0 32 -30q0 -23 -26 -31z" />
    <glyph glyph-name="edieresis" unicode="&#x623;" arabic-form="isolated" 
d="M330 799q1 -45 -21 -79q-26 -39 -69 -39q-42 -1 -57 41q-25 -64 -86 -64q-60 -1 -61 79q0 34 15 62q6 18 22 18q19 0 16 -27q-1 -10 -1 -18q0 -38 26 -39q44 -1 57 83q3 25 22 25q15 0 18 -24q2 -63 40 -63q21 0 30 31q2 17 1 49q0 3 -1 8q0 28 20 28q27 0 29 -71z
M338 1096q0 -64 -62 -114q20 -15 22 -32q0 -21 -26 -21q-22 0 -40 18q-139 -74 -192 -74q-33 0 -33 28q0 20 27 28q8 2 20 7q22 15 22 42q0 17 -24 17q-19 0 -34 -10q-9 -5 -16 -5q-14 0 -14 16q0 11 12 25q23 25 63 25q34 0 47 -20q8 -12 10 -32q0 -16 -10 -43q21 9 73 37
q-28 29 -28 64q0 47 36 83q31 30 72 31q28 0 51.5 -20.5t23.5 -49.5zM284 1074q0 37 -33 37q-12 0 -32 -17q-13 -13 -13 -33q0 -27 28 -45q50 22 50 58z" />
    <glyph glyph-name="iacute" unicode="&#x623;" arabic-form="final" 
d="M417 845q0 -48 -40 -85q-42 -40 -107 -41q-27 0 -78 4t-75 4q-47 0 -69 -20q-6 -3 -16 -19q-11 -19 -14 -22q-10 -11 -27 -12q-24 -1 -24 24q0 51 34.5 91t98.5 40q43 0 83 -3l81 -7q48 0 81 34.5t50 34.5q22 0 22 -23z" />
    <glyph glyph-name="idieresis" unicode="&#x624;" arabic-form="isolated" 
d="M290 770q0 -51 -33.5 -81t-73.5 -30q-46 0 -70 27.5t-24 70.5q0 54 36 89q29 26 63 27q43 1 69 -25q33 -24 33 -78zM245 760q1 26 -22 39q-17 16 -41 17q-15 1 -32 -19q-14 -14 -14 -33q0 -20 15 -32.5t40 -12.5q53 0 54 41z" />
    <glyph glyph-name="ntilde" unicode="&#x624;" arabic-form="final" 
d="M308 728l-208 -68q-3 0 -10 -1h-10q-26 0 -27 23t31 36l35 14q-34 34 -34 72q-1 46 37 81q33 31 79 31q25 0 49 -11q29 -14 29 -36q0 -23 -22 -23q-16 0 -27.5 2.5t-31.5 5.5q-47 0 -47 -41q0 -44 70 -45q11 -1 74 19q10 4 20 4q32 0 33 -25q0 -25 -40 -38z" />
    <glyph glyph-name="oacute" unicode="&#x625;" arabic-form="isolated" 
d="M206 684q0 -26 -27 -26q-22 -1 -24 25l-12 163q-3 36 34 36q29 0 29 -32v-166z" />
    <glyph glyph-name=".notdef" horiz-adv-x="550" 
d="M69 0v700h412v-700h-412zM138 69h275v562h-275v-562z" />
    <glyph glyph-name=".null" 
 />
    <glyph glyph-name="nonmarkingreturn" horiz-adv-x="239" 
 />
    <glyph glyph-name="space" unicode=" " horiz-adv-x="239" 
 />
    <glyph glyph-name="glyph4" horiz-adv-x="1012" 
d="M859 465l-65 -65q-3 -2 -6 -2t-5 2l-65 65q-6 6 0 11l65 65q2 4 5 4t6 -4l65 -65q6 -5 0 -11zM859 341q6 -7 0 -13l-65 -59q-6 -5 -11 0l-64 59q-7 6 -1 13l64 71q6 6 12 0zM861 202q-29 -90 -130 -135v-60q0 -8 -8 -8h-48q-22 0 -41 21q-15 15 -42 41q-45 -40 -124 -49
q-25 -3 -51 -9q-22 -4 -23 -4q-8 0 -8 8v93q0 17 15 17q1 0 3 -5t15 -5q11 0 35 4q55 7 79 28q-48 67 -56 135q0 5 5 8q11 9 34 27q12 10 35 30q4 6 9 4t5 -9q0 -94 79 -188q5 3 5 34v226q0 2 3 5l66 65q4 5 9 3q4 -1 4 -8v-291q0 -27 12 -34h39q3 0 3 1t-14 16
q-24 24 -50 33q-10 5 -2 14l63 71q4 5 10 1q28 -14 68 -73q2 -5 1 -7zM470 103q0 -8 -8 -8q-76 -10 -76 5v371q0 2 3 5l67 65q5 6 9 4q5 -2 5 -9v-433zM293 401l-65 -72q-4 -3 -6 -3q-3 0 -7 3l-65 72q-3 5 2 10l66 65q2 8 11 0l65 -65q7 -6 -1 -10zM403 73q0 -3 -1 -4
q-33 -42 -69 -68q-2 -4 -9 1q-154 145 -175 271q0 4 5 9q8 9 28 27q11 10 36 30q4 6 9 4q4 -2 4 -9q0 -94 78 -188q6 3 11 34v226q0 1 4 5l65 65q5 5 10 3q4 -1 4 -8v-398zM842 471l-54 55l-54 -55l54 -53zM842 336l-54 58l-54 -58l54 -50zM844 202q-34 51 -54 62l-54 -57
q22 -10 46 -34q16 -16 16 -29q0 -14 -16 -14h-42h-2q-24 13 -24 50v272l-48 -50v-222q0 -50 -27 -50q-4 0 -5 3q-79 94 -85 185q-12 -9 -22.5 -19.5t-33.5 -27.5q12 -67 58 -128q5 -5 -1 -10q-28 -29 -94 -38q-37 -5 -53 -2v-76q29 6 63 10q78 10 121 51q5 6 10 0l48 -47
q15 -15 30 -15h39v57q0 6 5 7q96 40 125 122zM453 110v407l-50 -50v-354q0 -12 50 -3zM277 405l-56 55l-52 -55l52 -58zM386 75v377l-48 -50l-1 -223q-10 -49 -33 -49q-5 0 -5 3q-77 92 -84 185q-16 -18 -50 -48q21 -116 165 -253q24 20 56 58z" />
    <glyph glyph-name="exclam" unicode="&#x660;" horiz-adv-x="691" 
d="M457 287q0 -48 -35 -81.5t-81 -33.5q-49 0 -83 33.5t-34 81.5q0 49 34 83.5t83 34.5q48 0 82 -35t34 -83z" />
    <glyph glyph-name="quotedbl" unicode="&#x661;" horiz-adv-x="691" 
d="M347 -58q-57 0 -54 75q5 162 -7 311q-12 153 -51 298q-5 20 -7 45q0 74 66 74q55 0 77 -79q51 -188 51 -451q0 -117 -12 -195t-63 -78z" />
    <glyph glyph-name="numbersign" unicode="&#x662;" horiz-adv-x="691" 
d="M593 674q1 -108 -44 -176q-52 -80 -154 -80q-78 0 -114 40q26 -146 26 -328q0 -137 -20 -163q-12 -22 -46 -22q-59 0 -58 68q1 250 -6 315q-16 153 -65 308q-7 23 -7 42q-2 66 69 67q30 0 49 -24q13 -21 27 -55q21 -54 51 -78.5t88 -24.5q82 0 83 109q0 42 19 65
q16 21 40 21q23 0 42 -22q20 -27 20 -62z" />
    <glyph glyph-name="dollar" unicode="&#x663;" horiz-adv-x="691" 
d="M666 664q0 -105 -43.5 -167t-119.5 -62q-70 0 -101 51q-34 -68 -99 -68q-43 0 -75 22q29 -125 29 -302q0 -77 -6 -121q-11 -72 -61 -72q-52 0 -52 68q-3 163 -11 251q-14 139 -51 244q-14 43 -46 128q-6 22 -6 39q0 69 67 70q43 0 76 -79q18 -44 49 -71q35 -32 61 -32
q66 0 66 109q0 37 20 54q13 19 39 20q28 1 44 -26q13 -22 13 -52q0 -46 6 -63q10 -25 43 -25q49 -1 49 88q0 71 51 72q28 1 44 -25q14 -22 14 -51z" />
    <glyph glyph-name="percent" unicode="&#x6f4;" horiz-adv-x="691" 
d="M598 446q-69 -56 -172 -57q-110 0 -175 41q24 -142 25 -289q1 -76 -8 -124q-6 -40 -14 -50q-12 -22 -44 -22q-57 0 -59 68l-8 280q-19 162 -70 289q-10 24 -10 48q0 69 68 69q33 0 70 -62q45 -75 81 -83q-5 27 -5 43q-1 67 44.5 119.5t106.5 52.5q68 0 109 -30
q37 -27 37 -51q0 -37 -37 -37q-14 0 -31 8q-22 5 -53 5t-48 -19q-19 -22 -20 -51q-1 -34 23 -54t58 -20q33 0 72.5 18t55.5 20q44 0 45 -46q1 -34 -41 -66z" />
    <glyph glyph-name="ampersand" unicode="&#x664;" horiz-adv-x="691" 
d="M598 446q-69 -56 -172 -57q-110 0 -175 41q24 -142 25 -289q1 -76 -8 -124q-6 -40 -14 -50q-12 -22 -44 -22q-57 0 -59 68l-8 280q-19 162 -70 289q-10 24 -10 48q0 69 68 69q33 0 70 -62q45 -75 81 -83q-5 27 -5 43q-1 67 44.5 119.5t106.5 52.5q68 0 109 -30
q37 -27 37 -51q0 -37 -37 -37q-14 0 -31 8q-22 5 -53 5t-48 -19q-19 -22 -20 -51q-1 -34 23 -54t58 -20q33 0 72.5 18t55.5 20q44 0 45 -46q1 -34 -41 -66z" />
    <glyph glyph-name="quotesingle" unicode="&#x6f5;" horiz-adv-x="691" 
d="M622 187q0 -104 -60 -172q-47 -54 -108 -54q-71 0 -109 47q-45 -67 -121 -67q-76 -1 -119 62q-40 58 -40 143q-1 190 186 434l-22 18q-23 20 -24 52q-1 27 21 49t50 22q29 0 52 -20q142 -124 218 -257.5t76 -256.5zM508 207q0 63 -62 164q-52 82 -120 144
q-64 -82 -108 -170q-49 -96 -49 -152q0 -80 60 -81q39 0 61.5 34t42.5 34q24 0 46.5 -33t59.5 -33q69 0 69 93z" />
    <glyph glyph-name="parenleft" unicode="&#x665;" horiz-adv-x="691" 
d="M622 187q0 -104 -60 -172q-47 -54 -108 -54q-71 0 -109 47q-45 -67 -121 -67q-76 -1 -119 62q-40 58 -40 143q-1 190 186 434l-22 18q-23 20 -24 52q-1 27 21 49t50 22q29 0 52 -20q142 -124 218 -257.5t76 -256.5zM508 207q0 63 -62 164q-52 82 -120 144
q-64 -82 -108 -170q-49 -96 -49 -152q0 -80 60 -81q39 0 61.5 34t42.5 34q24 0 46.5 -33t59.5 -33q69 0 69 93z" />
    <glyph glyph-name="parenright" unicode="&#x6f6;" horiz-adv-x="691" 
d="M649 461q0 -47 -106 -113q-185 -117 -304 -289q-26 -39 -79 -117q-25 -35 -61 -36q-46 0 -46 51q0 20 6 33q61 159 208 317q-50 12 -92 60q-51 59 -52 136q-1 102 64 168.5t167 67.5q52 1 91.5 -23.5t40.5 -58.5q1 -29 -37 -37q-21 -4 -80 -5q-118 -3 -123 -102
q-1 -31 36 -57t85 -26q39 0 117 43.5t103 43.5q62 0 62 -56z" />
    <glyph glyph-name="asterisk" unicode="&#x666;" horiz-adv-x="691" 
d="M649 461q0 -47 -106 -113q-185 -117 -304 -289q-26 -39 -79 -117q-25 -35 -61 -36q-46 0 -46 51q0 20 6 33q61 159 208 317q-50 12 -92 60q-51 59 -52 136q-1 102 64 168.5t167 67.5q52 1 91.5 -23.5t40.5 -58.5q1 -29 -37 -37q-21 -4 -80 -5q-118 -3 -123 -102
q-1 -31 36 -57t85 -26q39 0 117 43.5t103 43.5q62 0 62 -56z" />
    <glyph glyph-name="plus" unicode="&#x667;" horiz-adv-x="691" 
d="M606 592q-66 -100 -126 -273t-71 -293q-6 -66 -64 -67q-55 -1 -61 67q-11 121 -70.5 294t-125.5 272q-26 39 -26 78q0 26 14 45.5t40 19.5q40 0 79 -57q135 -200 153 -394q26 200 151 394q38 57 80 57q25 0 40 -20t15 -46q0 -36 -28 -77z" />
    <glyph glyph-name="comma" unicode="&#x668;" horiz-adv-x="691" 
d="M87 109q60 87 123 261q61 166 74 302q6 67 63 67t62 -67q9 -116 70 -292t126 -271q26 -39 28 -80q0 -27 -16 -45.5t-38 -18.5q-43 0 -81 56q-133 200 -153 395q-24 -200 -151 -395q-38 -57 -78 -57q-21 0 -41 19q-14 18 -14 47q0 41 26 79z" />
    <glyph glyph-name="hyphen" unicode="&#x669;" horiz-adv-x="691" 
d="M551 29q0 -76 -68 -77q-62 -1 -94 169q-20 109 -22 218q-156 0 -216 52q-49 42 -50 133t57 162q60 75 150 75q175 1 175 -289q0 -162 18 -255q12 -67 33 -116q17 -42 17 -72zM364 483q0 140 -70 140q-31 0 -55 -23q-23 -29 -23 -59q-1 -60 102 -60q29 0 46 2z" />
    <glyph glyph-name="period" unicode="&#x640;" horiz-adv-x="341" 
d="M359 0h-377v144h377v-144z" />
    <glyph glyph-name="slash" unicode="&#x621;" horiz-adv-x="503" 
d="M449 73l-283 -81q-28 -8 -47 4q-17 9 -17 28q0 33 41 49l51 19q-37 45 -37 91q0 60 47 104q40 39 102 39q35 0 69 -20q31 -18 32 -43q1 -31 -31 -32q-15 -1 -35 6q-23 3 -40 3q-28 0 -40 -13q-16 -17 -16 -34q0 -53 87 -53q25 0 99 23q18 2 24 2q48 0 48 -40
q0 -37 -54 -52z" />
    <glyph glyph-name="zero" unicode="&#x627;" horiz-adv-x="232" 
d="M232 47q0 -68 -53 -69q-51 -1 -54 64l-24 618q-1 42 17 74q22 28 50 28q64 0 64 -93v-622z" />
    <glyph glyph-name="one" unicode="&#xfe00;" horiz-adv-x="336" 
d="M353 0h-41q-123 0 -165 88q-26 54 -31 201l-15 394q-1 33 15 57.5t48 24.5q64 0 64 -82v-419q0 -120 98 -120h27v-144z" />
    <glyph glyph-name="two" unicode="&#x622;" horiz-adv-x="495" 
d="M394 47q0 -68 -53 -69q-51 -1 -54 64l-24 618q-2 42 16 74q21 28 51 28q64 0 64 -93v-622zM524 960q0 -47 -40 -84q-42 -40 -106 -41q-26 -1 -77 3t-75 4q-50 0 -71 -18q-8 -7 -24 -35q-14 -19 -32 -19q-24 0 -24 24q-1 45 35 88t98 43q44 0 84 -3q52 -5 80 -5
q55 0 82.5 33t49.5 33q20 0 20 -23z" />
    <glyph glyph-name="three" unicode="&#xfe01;" horiz-adv-x="479" 
d="M497 0h-42q-123 0 -165 88q-27 55 -31 201l-14 394q-1 32 14 55q17 27 48 27q64 0 64 -82v-419q0 -120 98 -120h28v-144zM521 960q0 -54 -46 -91q-43 -33 -100 -34q-27 -1 -77 3q-53 4 -77 4q-47 0 -68 -18q-9 -5 -25 -35q-14 -19 -31 -19q-24 0 -24 24q0 55 38 93t94 38
q42 0 82 -3q53 -5 83 -5q51 0 78.5 33t50.5 33q22 0 22 -23z" />
    <glyph glyph-name="four" unicode="&#x623;" horiz-adv-x="370" 
d="M309 47q0 -68 -53 -69q-50 -1 -52 64l-25 618q-1 38 16 74q23 28 51 28q63 0 63 -93v-622zM342 859l-210 -67q-7 -1 -18 -3q-27 0 -28 24q-1 22 30 36l36 13q-34 33 -34 74q0 46 36 79q33 30 79 30q31 0 55.5 -13t25.5 -32q0 -23 -22 -23q-6 0 -30 2q-15 4 -32 4
q-46 0 -47 -39q-2 -44 71 -45q9 0 74 20q16 3 19 3q33 0 33 -25q0 -26 -38 -38z" />
    <glyph glyph-name="five" unicode="&#xfe03;" horiz-adv-x="409" 
d="M428 0h-42q-123 0 -165 88q-26 56 -31 201l-13 394q-1 34 13 56q17 26 49 26q64 0 64 -82v-419q0 -120 95 -120h30v-144zM342 859l-210 -67q-7 -1 -18 -3q-27 0 -28 24q-1 22 30 36l36 13q-34 33 -34 74q0 46 36 79q33 30 79 30q31 0 55.5 -13t25.5 -32q0 -23 -22 -23
q-6 0 -30 2q-15 4 -32 4q-46 0 -47 -39q-2 -44 71 -45q9 0 74 20q16 3 19 3q33 0 33 -25q0 -26 -38 -38z" />
    <glyph glyph-name="six" unicode="&#x625;" horiz-adv-x="232" 
d="M232 47q0 -68 -53 -69q-51 -1 -54 64l-24 618q-1 42 17 74q22 28 50 28q64 0 64 -93v-622zM271 -293l-210 -67q-7 -1 -18 -3q-28 0 -29 24q0 22 30 36l36 14q-34 32 -34 73q0 47 37 80q32 29 79 29q31 0 55 -12.5t25 -32.5q1 -23 -22 -23q-5 0 -30 2q-14 5 -32 5
q-45 0 -47 -40q-2 -43 72 -45q9 0 73 20q17 3 19 3q33 0 33 -25q0 -26 -37 -38z" />
    <glyph glyph-name="seven" unicode="&#xfe05;" horiz-adv-x="336" 
d="M353 0h-41q-123 0 -165 88q-26 54 -31 201l-15 394q-1 33 15 57.5t48 24.5q64 0 64 -82v-419q0 -120 98 -120h27v-144zM359 -282l-210 -67q-7 -1 -18 -3q-28 0 -29 24q0 22 30 36l36 14q-34 32 -34 73q0 47 37 80q32 29 79 29q31 0 55 -12.5t25 -32.5q1 -23 -22 -23
q-5 0 -30 2q-14 5 -32 5q-45 0 -47 -40q-2 -43 72 -45q9 0 73 20q17 3 19 3q33 0 33 -25q0 -26 -37 -38z" />
    <glyph glyph-name="eight" unicode="&#xfe06;" horiz-adv-x="232" 
d="M232 47q0 -68 -53 -69q-51 -1 -54 64l-24 618q-1 42 17 74q22 28 50 28q64 0 64 -93v-622z" />
    <glyph glyph-name="nine" unicode="&#xfe07;" horiz-adv-x="336" 
d="M353 0h-41q-123 0 -165 88q-26 54 -31 201l-15 394q-1 33 15 57.5t48 24.5q64 0 64 -82v-419q0 -120 98 -120h27v-144z" />
    <glyph glyph-name="colon" unicode="&#x671;" horiz-adv-x="232" 
d="M232 47q0 -68 -53 -69q-51 -1 -54 64l-24 618q-1 42 17 74q22 28 50 28q64 0 64 -93v-622z" />
    <glyph glyph-name="semicolon" unicode="&#xfe08;" horiz-adv-x="336" 
d="M353 0h-41q-123 0 -165 88q-26 54 -31 201l-15 394q-1 33 15 57.5t48 24.5q64 0 64 -82v-419q0 -120 98 -120h27v-144z" />
    <glyph glyph-name="less" unicode="&#x628;" horiz-adv-x="1038" 
d="M1034 210q0 -138 -166 -197q-136 -48 -399 -48q-368 0 -368 217q0 66 23 123.5t61 58.5q44 1 44 -46q0 -20 -6.5 -47t-6.5 -44q0 -53 39 -78q58 -37 222 -37h76q158 0 252 23q109 27 109 70q0 35 -21 73q-18 35 -18 63q0 68 61 68q50 0 77 -79q21 -59 21 -120zM615 -224
q1 -26 -20 -50q-22 -20 -50 -21q-30 -1 -51 21q-19 19 -22 50q0 29 21 50t52 21q28 0 50 -21q19 -18 20 -50z" />
    <glyph glyph-name="equal" unicode="&#xfe09;" horiz-adv-x="1070" 
d="M1089 0h-43q-45 0 -85.5 23t-55.5 53q-81 -110 -436 -111q-368 -2 -368 217q0 66 23 123.5t61 58.5q44 1 44 -46q0 -20 -6.5 -47t-6.5 -44q0 -53 39 -78q58 -37 222 -37h76q233 0 291 70q7 11 33 69q15 35 45 36q27 1 43 -28q0 -1 9 -47q13 -68 95 -68h20v-144zM584 -224
q0 -30 -21 -50t-48 -21q-31 -1 -51 21q-21 18 -21 50t20 51.5t52 19.5q29 0 48 -21q21 -16 21 -50z" />
    <glyph glyph-name="greater" unicode="&#xfe0a;" horiz-adv-x="355" 
d="M373 0h-42q-120 0 -153 76q-47 -76 -153 -76h-43v144h44q91 0 105 84q10 59 52 59q43 0 50 -59q10 -84 98 -84h42v-144zM228 -200q1 -30 -20.5 -50.5t-51.5 -20.5q-27 0 -48.5 21t-21.5 50q0 32 19.5 51t50.5 20q27 1 51 -20q20 -21 21 -51z" />
    <glyph glyph-name="question" unicode="&#xfe0b;" horiz-adv-x="255" 
d="M252 226q1 -94 -50 -154q-59 -72 -172 -72h-48v144h58q91 0 92 66q0 9 -12 57q-7 25 -7 51q0 24 17.5 42.5t41.5 19.5q79 1 80 -154zM191 -200q1 -31 -22 -51q-18 -20 -48 -20q-28 0 -49.5 19t-21.5 52q-1 31 19.5 50.5t51.5 20.5q27 1 48.5 -19.5t21.5 -51.5z" />
    <glyph glyph-name="at" unicode="&#x67e;" horiz-adv-x="1036" 
d="M1034 210q0 -138 -166 -197q-136 -48 -399 -48q-368 0 -368 217q0 66 23 123.5t61 58.5q44 1 44 -46q0 -20 -6.5 -47t-6.5 -44q0 -53 39 -78q58 -37 222 -37h76q158 0 252 23q109 27 109 70q0 35 -21 73q-18 35 -18 63q0 68 61 68q50 0 77 -79q21 -59 21 -120zM710 -178
q0 -26 -21 -51q-27 -21 -51 -21q-29 0 -52 21q-18 22 -18 51q0 32 18 50q22 21 52 21q29 0 50 -21t22 -50zM535 -178q0 -31 -20.5 -51.5t-49.5 -20.5q-30 0 -50 20.5t-21 51.5q-1 28 21.5 49.5t49.5 21.5q33 0 50 -22q20 -16 20 -49zM623 -329q0 -28 -22 -51
q-18 -17 -50 -20q-29 0 -48 20q-22 19 -22 51q0 31 20 51.5t50 20.5q29 0 50 -21t22 -51z" />
    <glyph glyph-name="A" unicode="&#xfe0c;" horiz-adv-x="1070" 
d="M1089 0h-43q-45 0 -85.5 23t-55.5 53q-81 -110 -436 -111q-368 -2 -368 217q0 66 23 123.5t61 58.5q44 1 44 -46q0 -20 -6.5 -47t-6.5 -44q0 -53 39 -78q58 -37 222 -37h76q233 0 291 70q7 11 33 69q15 35 45 36q27 1 43 -28q0 -1 9 -47q13 -68 95 -68h20v-144zM710 -178
q0 -26 -21 -51q-27 -21 -51 -21q-29 0 -52 21q-18 22 -18 51q0 32 18 50q22 21 52 21q29 0 50 -21t22 -50zM535 -178q0 -31 -20.5 -51.5t-49.5 -20.5q-30 0 -50 20.5t-21 51.5q-1 28 21.5 49.5t49.5 21.5q33 0 50 -22q20 -16 20 -49zM623 -329q0 -28 -22 -51
q-18 -17 -50 -20q-29 0 -48 20q-22 19 -22 51q0 31 20 51.5t50 20.5q29 0 50 -21t22 -51z" />
    <glyph glyph-name="B" unicode="&#xfe0d;" horiz-adv-x="355" 
d="M373 0h-42q-120 0 -153 76q-47 -76 -153 -76h-43v144h44q91 0 105 84q10 59 52 59q43 0 50 -59q10 -84 98 -84h42v-144zM339 -156q1 -29 -20.5 -50.5t-51.5 -21.5q-29 0 -51 21q-21 25 -21 51t21 50q21 20 51 20q31 0 51 -20t21 -50zM164 -156q0 -33 -21 -51
q-18 -21 -49 -21t-51 20.5t-20 51.5q0 29 21.5 49.5t49.5 20.5q29 0 49.5 -20t20.5 -50zM252 -307q1 -29 -20.5 -50t-51.5 -21q-29 0 -49.5 19.5t-20.5 51.5q0 30 20 50t50 20q30 1 50.5 -19.5t21.5 -50.5z" />
    <glyph glyph-name="C" unicode="&#xfe0e;" horiz-adv-x="329" 
d="M252 226q1 -94 -50 -154q-59 -72 -172 -72h-48v144h58q91 0 92 66q0 9 -12 57q-7 25 -7 51q0 24 17.5 42.5t41.5 19.5q79 1 80 -154zM326 -156q0 -29 -20.5 -50.5t-50.5 -21.5t-50 21t-20 51q0 31 19.5 50.5t50.5 19.5t51 -20.5t20 -49.5zM153 -156q0 -30 -21 -51
t-51 -21q-28 0 -48 20t-23 52q0 29 21 49.5t50 20.5q30 0 51 -20t21 -50zM239 -307q0 -31 -20.5 -51t-51.5 -20t-50 20t-19 51t19.5 50.5t49.5 19.5q30 1 51 -19.5t21 -50.5z" />
    <glyph glyph-name="D" unicode="&#x62a;" horiz-adv-x="1038" 
d="M1034 210q0 -138 -166 -197q-136 -48 -399 -48q-368 0 -368 217q0 66 23 123.5t61 58.5q44 1 44 -46q0 -20 -6.5 -47t-6.5 -44q0 -53 39 -78q58 -37 222 -37h76q158 0 252 23q109 27 109 70q0 35 -21 73q-18 35 -18 63q0 68 61 68q50 0 77 -79q21 -59 21 -120zM690 501
q0 -32 -20 -52t-50 -20q-31 0 -50.5 20t-20.5 52q-1 27 20 48.5t51 21.5q29 0 49.5 -20.5t20.5 -49.5zM518 501q1 -27 -21 -52q-21 -20 -50 -20q-31 0 -51 20t-20 52q0 29 20.5 49.5t50.5 20.5q29 0 49.5 -20.5t21.5 -49.5z" />
    <glyph glyph-name="E" unicode="&#xfe0f;" horiz-adv-x="1070" 
d="M1089 0h-43q-45 0 -85.5 23t-55.5 53q-81 -110 -436 -111q-368 -2 -368 217q0 66 23 123.5t61 58.5q44 1 44 -46q0 -20 -6.5 -47t-6.5 -44q0 -53 39 -78q58 -37 222 -37h76q233 0 291 70q7 11 33 69q15 35 45 36q27 1 43 -28q0 -1 9 -47q13 -68 95 -68h20v-144zM690 501
q0 -32 -20 -52t-50 -20q-31 0 -50.5 20t-20.5 52q-1 27 20 48.5t51 21.5q29 0 49.5 -20.5t20.5 -49.5zM518 501q1 -27 -21 -52q-21 -20 -50 -20q-31 0 -51 20t-20 52q0 29 20.5 49.5t50.5 20.5q29 0 49.5 -20.5t21.5 -49.5z" />
    <glyph glyph-name="F" unicode="&#xfe10;" horiz-adv-x="355" 
d="M373 0h-42q-120 0 -153 76q-47 -76 -153 -76h-43v144h44q91 0 105 84q10 59 52 59q43 0 50 -59q10 -84 98 -84h42v-144zM332 458q0 -31 -18.5 -49.5t-51.5 -22.5q-28 0 -49.5 21.5t-22.5 50.5q0 28 21 49.5t51 22.5t52 -22q18 -20 18 -50zM161 458q0 -30 -22 -50
q-17 -18 -50 -22q-28 0 -50 22q-18 17 -21 50q0 29 20.5 50t50.5 22q28 1 49.5 -21.5t22.5 -50.5z" />
    <glyph glyph-name="G" unicode="&#xfe11;" horiz-adv-x="326" 
d="M252 226q1 -94 -50 -154q-59 -72 -172 -72h-48v144h58q91 0 92 66q0 9 -12 57q-7 25 -7 51q0 24 17.5 42.5t41.5 19.5q79 1 80 -154zM321 530q0 -32 -20 -50q-23 -22 -49 -22q-28 -1 -50 21t-22 51q0 31 20.5 50.5t51.5 20.5q30 0 49.5 -20.5t19.5 -50.5zM149 530
q0 -30 -20.5 -51t-50.5 -21q-29 -1 -49.5 21t-20.5 51q0 31 19 50.5t51 20.5q31 0 51 -20t20 -51z" />
    <glyph glyph-name="H" unicode="&#x62b;" horiz-adv-x="1034" 
d="M1034 210q0 -138 -166 -197q-136 -48 -399 -48q-368 0 -368 217q0 66 23 123.5t61 58.5q44 1 44 -46q0 -20 -6.5 -47t-6.5 -44q0 -53 39 -78q58 -37 222 -37h76q158 0 252 23q109 27 109 70q0 35 -21 73q-18 35 -18 63q0 68 61 68q50 0 77 -79q21 -59 21 -120zM394 426
q-1 30 20 50.5t51 21.5q28 1 49 -19.5t21 -52.5q0 -30 -20.5 -50.5t-49.5 -21.5q-27 -1 -50 21q-20 19 -21 51zM568 426q0 30 18 51q22 20 52 21q25 1 51 -21q20 -25 21 -51q0 -28 -21.5 -49.5t-50.5 -22.5q-26 -1 -52 21q-18 22 -18 51zM481 576q0 32 22 51q16 21 48 21
q29 0 50 -21t22 -51q0 -27 -21 -48.5t-51 -21.5q-31 0 -50.5 19.5t-19.5 50.5z" />
    <glyph glyph-name="I" unicode="&#xfe12;" horiz-adv-x="1070" 
d="M1089 0h-43q-45 0 -85.5 23t-55.5 53q-81 -110 -436 -111q-368 -2 -368 217q0 66 23 123.5t61 58.5q44 1 44 -46q0 -20 -6.5 -47t-6.5 -44q0 -53 39 -78q58 -37 222 -37h76q233 0 291 70q7 11 33 69q15 35 45 36q27 1 43 -28q0 -1 9 -47q13 -68 95 -68h20v-144zM394 426
q-1 30 20 50.5t51 21.5q28 1 49 -19.5t21 -52.5q0 -30 -20.5 -50.5t-49.5 -21.5q-27 -1 -50 21q-20 19 -21 51zM568 426q0 30 18 51q22 20 52 21q25 1 51 -21q20 -25 21 -51q0 -28 -21.5 -49.5t-50.5 -22.5q-26 -1 -52 21q-18 22 -18 51zM481 576q0 32 22 51q16 21 48 21
q29 0 50 -21t22 -51q0 -27 -21 -48.5t-51 -21.5q-31 0 -50.5 19.5t-19.5 50.5z" />
    <glyph glyph-name="J" unicode="&#xfe13;" horiz-adv-x="355" 
d="M373 0h-42q-120 0 -153 76q-47 -76 -153 -76h-43v144h44q91 0 105 84q10 59 52 59q43 0 50 -59q10 -84 98 -84h42v-144zM22 457q-1 28 20 49.5t50 21.5q31 0 51 -20.5t20 -50.5q0 -33 -21 -51q-19 -21 -50 -21q-29 0 -49 20t-21 52zM194 457q0 29 21.5 50t50.5 21
q30 0 49 -20.5t23 -50.5q0 -30 -21 -51t-51 -21q-31 0 -51.5 21.5t-20.5 50.5zM109 607q0 31 21 52q18 18 49 19q31 0 51 -20t21 -51q1 -29 -21.5 -50.5t-50.5 -21.5q-26 -1 -49 22q-21 20 -21 50z" />
    <glyph glyph-name="K" unicode="&#xfe14;" horiz-adv-x="321" 
d="M252 226q1 -94 -50 -154q-59 -72 -172 -72h-48v144h58q91 0 92 66q0 9 -12 57q-7 25 -7 51q0 24 17.5 42.5t41.5 19.5q79 1 80 -154zM8 526q0 30 20 50.5t50 20.5q65 0 73 -71q0 -27 -20.5 -48.5t-52.5 -22.5q-28 0 -50 20q-20 24 -20 51zM180 526q0 29 22 50
q17 21 50 21q31 0 50 -20t20 -51q1 -30 -18.5 -50t-51.5 -21q-30 0 -50.5 20t-21.5 51zM94 677q0 32 22 51.5t49 19.5q30 0 51 -21t21 -50q0 -30 -21 -50t-51 -21q-27 -1 -51 20q-17 19 -20 51z" />
    <glyph glyph-name="L" unicode="&#x62c;" horiz-adv-x="732" 
d="M733 -422q-121 -40 -225 -40q-217 0 -315 87q-91 79 -92 245q-1 125 98 232q83 91 212 147q-100 6 -124 6q-40 0 -69 -26.5t-44 -26.5q-58 0 -58 53q-1 38 44.5 90.5t109.5 52.5q46 0 123 -13t174 -14q28 -1 71 2q42 2 69 -20q22 -18 22 -50q0 -28 -19.5 -51t-64.5 -35
q-145 -23 -275 -115q-137 -96 -138 -203q-1 -108 60 -160q66 -57 237 -57q69 0 181 24q5 1 15 1q29 0 46 -16t18 -43q1 -52 -56 -70zM551 -102q0 -31 -20 -52q-24 -21 -50 -21q-29 0 -50 21t-21 52q0 28 19.5 49t51.5 21q30 0 50 -20t20 -50z" />
    <glyph glyph-name="M" unicode="&#xfe15;" horiz-adv-x="790" 
d="M551 -114q0 -31 -20 -51.5t-50 -20.5t-50.5 21t-20.5 51q0 28 19 48t52 23q29 0 49.5 -21t20.5 -50zM810 0h-150q-71 0 -110 58q-31 48 -33 124q-122 -49 -198 -119q-86 -80 -87 -164q-1 -108 60 -160q66 -57 237 -57q66 0 181 24q5 1 15 1q29 0 46 -16t18 -44
q1 -51 -56 -69q-121 -40 -225 -40q-217 0 -315 87q-91 79 -92 245q-1 125 98 232q83 91 212 147q-100 6 -124 6q-40 0 -69 -26.5t-44 -26.5q-58 0 -58 53q-1 38 44.5 90.5t109.5 52.5q46 0 123 -13t174 -14q29 -1 71 2q41 2 68 -20q22 -18 22 -49q0 -26 -21 -52
q-24 -24 -62 -35q-27 -5 -49 -12q8 -61 84 -61h130v-144z" />
    <glyph glyph-name="N" unicode="&#xfe16;" horiz-adv-x="746" 
d="M765 0h-141q-145 0 -147 182q-23 -14 -112 -80q-69 -51 -111 -70q-69 -32 -147 -32h-125v144h106q74 0 155 34q44 19 141 75q-134 26 -168 26q-22 0 -48.5 -17.5t-44.5 -20.5q-48 0 -49 55q-1 43 48 84q46 40 90 40q59 0 191 -30.5t204 -30.5q67 0 68 -62q1 -23 -11 -43
t-29.5 -23t-86.5 -25q13 -62 97 -62h120v-144zM486 -167q1 -29 -20 -50.5t-50 -22.5q-30 -1 -51 22q-21 18 -21 51q0 30 21 49.5t51 19.5t49.5 -20t20.5 -49z" />
    <glyph glyph-name="O" unicode="&#xfe17;" horiz-adv-x="652" 
d="M597 191q-104 -25 -226 -92q-93 -51 -132 -70q-81 -29 -197 -29h-60v144h88q79 0 154 22q37 14 182 77q-165 51 -200 52q-19 0 -45 -19t-49 -19q-48 0 -48 55q0 45 48 85q45 38 90 39q51 0 169 -41q126 -45 222 -55q27 -3 44 -25q14 -18 18 -51q0 -59 -58 -73zM486 -167
q1 -29 -20 -50.5t-50 -22.5q-30 -1 -51 22q-21 18 -21 51q0 30 21 49.5t51 19.5t49.5 -20t20.5 -49z" />
    <glyph glyph-name="P" unicode="&#x686;" horiz-adv-x="732" 
d="M733 -422q-121 -40 -225 -40q-217 0 -315 87q-91 79 -92 245q-1 125 98 232q83 91 212 147q-100 6 -124 6q-40 0 -69 -26.5t-44 -26.5q-58 0 -58 53q-1 38 44.5 90.5t109.5 52.5q46 0 123 -13t174 -14q28 -1 71 2q42 2 69 -20q22 -18 22 -50q0 -28 -19.5 -51t-64.5 -35
q-145 -23 -275 -115q-137 -96 -138 -203q-1 -108 60 -160q66 -57 237 -57q69 0 181 24q5 1 15 1q29 0 46 -16t18 -43q1 -52 -56 -70zM624 -46q0 -31 -19.5 -50.5t-51.5 -20.5q-29 0 -49.5 20.5t-21.5 50.5q-1 32 22 50q16 21 49 21q31 0 51 -20.5t20 -50.5zM452 -46
q0 -28 -22 -51q-18 -19 -50 -20q-29 0 -50 20.5t-22 50.5q-1 27 21 50q19 21 51 21q31 0 49 -19.5t23 -51.5zM537 -195q1 -30 -19.5 -51.5t-51.5 -21.5q-26 -1 -48 21t-23 52q-1 28 21.5 49t49.5 21q32 0 51 -21t20 -49z" />
    <glyph glyph-name="Q" unicode="&#xfe18;" horiz-adv-x="790" 
d="M810 0h-150q-71 0 -110 58q-31 48 -33 124q-122 -49 -198 -119q-86 -80 -87 -164q-1 -108 60 -160q66 -57 237 -57q66 0 181 24q5 1 15 1q29 0 46 -16t18 -44q1 -51 -56 -69q-121 -40 -225 -40q-217 0 -315 87q-91 79 -92 245q-1 125 98 232q83 91 212 147q-100 6 -124 6
q-40 0 -69 -26.5t-44 -26.5q-58 0 -58 53q-1 38 44.5 90.5t109.5 52.5q46 0 123 -13t174 -14q29 -1 71 2q41 2 68 -20q22 -18 22 -49q0 -26 -21 -52q-24 -24 -62 -35q-27 -5 -49 -12q8 -61 84 -61h130v-144zM597 -65q1 -27 -22 -51q-19 -20 -49 -20q-29 -1 -50 19.5
t-21 51.5t20 51.5t51 20.5q28 0 49 -21t22 -51zM422 -65q0 -29 -19 -50t-51 -21q-28 -1 -49 20t-21 51t20.5 51t49.5 21q30 0 50 -20.5t20 -51.5zM509 -215q0 -32 -19 -51q-22 -21 -50 -21q-30 0 -50.5 21t-20.5 51q0 29 20.5 50t50.5 21q28 0 50 -21q19 -19 19 -50z" />
    <glyph glyph-name="R" unicode="&#xfe19;" horiz-adv-x="746" 
d="M765 0h-141q-145 0 -147 182q-23 -14 -112 -80q-69 -51 -111 -70q-69 -32 -147 -32h-125v144h106q74 0 155 34q44 19 141 75q-134 26 -168 26q-22 0 -48.5 -17.5t-44.5 -20.5q-48 0 -49 55q-1 43 48 84q46 40 90 40q59 0 191 -30.5t204 -30.5q67 0 68 -62q1 -23 -11 -43
t-29.5 -23t-86.5 -25q13 -62 97 -62h120v-144zM540 -111q0 -31 -19.5 -51t-50.5 -21q-31 0 -51.5 22t-21.5 50q-1 27 21 49t52 22q29 1 49.5 -20.5t20.5 -50.5zM367 -111q0 -31 -20.5 -51t-50.5 -21q-29 0 -49.5 21t-20.5 51q-1 28 20 49.5t50 21.5q27 1 51 -22
q20 -20 20 -49zM454 -262q0 -31 -19.5 -50.5t-51.5 -19.5t-50.5 18.5t-18.5 51.5t19.5 52t49.5 20q28 0 49.5 -21.5t21.5 -50.5z" />
    <glyph glyph-name="S" unicode="&#xfe1a;" horiz-adv-x="652" 
d="M597 191q-104 -25 -226 -92q-93 -51 -132 -70q-81 -29 -197 -29h-60v144h88q79 0 154 22q37 14 182 77q-165 51 -200 52q-19 0 -45 -19t-49 -19q-48 0 -48 55q0 45 48 85q45 38 90 39q51 0 169 -41q126 -45 222 -55q27 -3 44 -25q14 -18 18 -51q0 -59 -58 -73zM582 -111
q0 -30 -20.5 -50.5t-51.5 -21.5q-29 0 -49 21t-20 51q0 32 19.5 51.5t49.5 19.5q28 1 50 -21t22 -50zM409 -111q0 -31 -19.5 -51t-50.5 -21q-30 0 -50.5 22t-21.5 50q-1 30 22 49q20 22 50 22q29 1 49.5 -20.5t20.5 -50.5zM495 -262q0 -32 -19.5 -51t-51.5 -19
q-29 0 -49.5 19.5t-21.5 50.5q-1 30 21.5 50.5t49.5 21.5q28 1 51 -22q20 -20 20 -50z" />
    <glyph glyph-name="T" unicode="&#x62d;" horiz-adv-x="732" 
d="M733 -422q-121 -40 -225 -40q-217 0 -315 87q-91 79 -92 245q-1 125 98 232q83 91 212 147q-100 6 -124 6q-40 0 -69 -26.5t-44 -26.5q-58 0 -58 53q-1 38 44.5 90.5t109.5 52.5q46 0 123 -13t174 -14q28 -1 71 2q42 2 69 -20q22 -18 22 -50q0 -28 -19.5 -51t-64.5 -35
q-145 -23 -275 -115q-137 -96 -138 -203q-1 -108 60 -160q66 -57 237 -57q69 0 181 24q5 1 15 1q29 0 46 -16t18 -43q1 -52 -56 -70z" />
    <glyph glyph-name="U" unicode="&#xfe1b;" horiz-adv-x="791" 
d="M810 0h-150q-71 0 -110 58q-31 48 -33 124q-122 -49 -198 -119q-86 -80 -87 -164q-1 -108 60 -160q66 -57 237 -57q66 0 181 24q5 1 15 1q29 0 46 -16t18 -44q1 -51 -56 -69q-121 -40 -225 -40q-217 0 -315 87q-91 79 -92 245q-1 125 98 232q83 91 212 147q-100 6 -124 6
q-40 0 -69 -26.5t-44 -26.5q-58 0 -58 53q-1 38 44.5 90.5t109.5 52.5q46 0 123 -13t174 -14q29 -1 71 2q41 2 68 -20q22 -18 22 -49q0 -26 -21 -52q-24 -24 -62 -35q-27 -5 -49 -12q8 -61 84 -61h130v-144z" />
    <glyph glyph-name="V" unicode="&#xfe1c;" horiz-adv-x="747" 
d="M765 0h-141q-145 0 -147 182q-23 -14 -112 -80q-69 -51 -111 -70q-69 -32 -147 -32h-125v144h106q74 0 155 34q44 19 141 75q-134 26 -168 26q-22 0 -48.5 -17.5t-44.5 -20.5q-48 0 -49 55q-1 43 48 84q46 40 90 40q59 0 191 -30.5t204 -30.5q67 0 68 -62q1 -23 -11 -43
t-29.5 -23t-86.5 -25q13 -62 97 -62h120v-144z" />
    <glyph glyph-name="W" unicode="&#xfe1d;" horiz-adv-x="652" 
d="M597 191q-104 -25 -226 -92q-93 -51 -132 -70q-81 -29 -197 -29h-60v144h88q79 0 154 22q37 14 182 77q-165 51 -200 52q-19 0 -45 -19t-49 -19q-48 0 -48 55q0 45 48 85q45 38 90 39q51 0 169 -41q126 -45 222 -55q27 -3 44 -25q14 -18 18 -51q0 -59 -58 -73z" />
    <glyph glyph-name="X" unicode="&#x62e;" horiz-adv-x="732" 
d="M733 -422q-121 -40 -225 -40q-217 0 -315 87q-91 79 -92 245q-1 125 98 232q83 91 212 147q-100 6 -124 6q-40 0 -69 -26.5t-44 -26.5q-58 0 -58 53q-1 38 44.5 90.5t109.5 52.5q46 0 123 -13t174 -14q28 -1 71 2q42 2 69 -20q22 -18 22 -50q0 -28 -19.5 -51t-64.5 -35
q-145 -23 -275 -115q-137 -96 -138 -203q-1 -108 60 -160q66 -57 237 -57q69 0 181 24q5 1 15 1q29 0 46 -16t18 -43q1 -52 -56 -70zM485 597q1 -29 -20 -48.5t-50 -22.5q-31 0 -50 22q-21 16 -22 49q-1 30 20.5 51t51.5 21t49.5 -21t20.5 -51z" />
    <glyph glyph-name="Y" unicode="&#xfe1e;" horiz-adv-x="790" 
d="M810 0h-150q-71 0 -110 58q-31 48 -33 124q-122 -49 -198 -119q-86 -80 -87 -164q-1 -108 60 -160q66 -57 237 -57q66 0 181 24q5 1 15 1q29 0 46 -16t18 -44q1 -51 -56 -69q-121 -40 -225 -40q-217 0 -315 87q-91 79 -92 245q-1 125 98 232q83 91 212 147q-100 6 -124 6
q-40 0 -69 -26.5t-44 -26.5q-58 0 -58 53q-1 38 44.5 90.5t109.5 52.5q46 0 123 -13t174 -14q29 -1 71 2q41 2 68 -20q22 -18 22 -49q0 -26 -21 -52q-24 -24 -62 -35q-27 -5 -49 -12q8 -61 84 -61h130v-144zM485 597q1 -29 -20 -48.5t-50 -22.5q-31 0 -50 22q-21 16 -22 49
q-1 30 20.5 51t51.5 21t49.5 -21t20.5 -51z" />
    <glyph glyph-name="Z" unicode="&#xfe1f;" horiz-adv-x="746" 
d="M765 0h-141q-145 0 -147 182q-23 -14 -112 -80q-69 -51 -111 -70q-69 -32 -147 -32h-125v144h106q74 0 155 34q44 19 141 75q-134 26 -168 26q-22 0 -48.5 -17.5t-44.5 -20.5q-48 0 -49 55q-1 43 48 84q46 40 90 40q59 0 191 -30.5t204 -30.5q67 0 68 -62q1 -23 -11 -43
t-29.5 -23t-86.5 -25q13 -62 97 -62h120v-144zM414 627q0 -30 -20.5 -50t-50.5 -20t-51 20t-21 50q-1 27 21 49t51 23q26 0 50 -22q21 -21 21 -50z" />
    <glyph glyph-name="bracketleft" unicode="&#xfe20;" horiz-adv-x="652" 
d="M597 191q-104 -25 -226 -92q-93 -51 -132 -70q-81 -29 -197 -29h-60v144h88q79 0 154 22q37 14 182 77q-165 51 -200 52q-19 0 -45 -19t-49 -19q-48 0 -48 55q0 45 48 85q45 38 90 39q51 0 169 -41q126 -45 222 -55q27 -3 44 -25q14 -18 18 -51q0 -59 -58 -73zM414 627
q0 -30 -20.5 -50t-50.5 -20t-51 20t-21 50q-1 27 21 49t51 23q26 0 50 -22q21 -21 21 -50z" />
    <glyph glyph-name="backslash" unicode="&#x62f;" horiz-adv-x="545" 
d="M541 155q-7 -80 -64 -120q-43 -31 -126 -52q-65 -16 -130 -16q-126 0 -120 68q5 53 94 66q69 7 137 13q98 21 100 51q6 64 -137 187q-51 44 -46 78q4 32 25 47q21 12 45 10q53 -4 139 -117q91 -122 83 -215z" />
    <glyph glyph-name="bracketright" unicode="&#xfe21;" horiz-adv-x="666" 
d="M685 0h-41q-102 0 -140 54q-41 -62 -171 -89q-63 -13 -115 -13q-106 0 -113 71q-6 60 82 65q240 15 229 79q-5 28 -39 85q-10 17 -58 91q-32 49 -32 86q0 25 17 43q18 15 44 15q14 0 19 -1q42 -9 157 -233q31 -61 58 -88q28 -21 74 -21h29v-144z" />
    <glyph glyph-name="asciicircum" unicode="&#x630;" horiz-adv-x="545" 
d="M541 155q-7 -80 -64 -120q-43 -31 -126 -52q-65 -16 -130 -16q-126 0 -120 68q5 53 94 66q69 7 137 13q98 21 100 51q6 64 -137 187q-51 44 -46 78q4 32 25 47q21 12 45 10q53 -4 139 -117q91 -122 83 -215zM295 651q1 -29 -20 -49.5t-51 -20.5q-32 0 -49 20
q-21 19 -22 50q-1 28 20.5 49.5t50.5 21.5q27 0 50 -21q20 -19 21 -50z" />
    <glyph glyph-name="underscore" unicode="&#xfe22;" horiz-adv-x="666" 
d="M685 0h-41q-102 0 -140 54q-41 -62 -171 -89q-63 -13 -115 -13q-106 0 -113 71q-6 60 82 65q240 15 229 79q-5 28 -39 85q-10 17 -58 91q-32 49 -32 86q0 25 17 43q18 15 44 15q14 0 19 -1q42 -9 157 -233q31 -61 58 -88q28 -21 74 -21h29v-144zM343 640q0 -29 -21 -49.5
t-50 -20.5q-30 0 -50 20.5t-21 49.5q-1 30 22 50q18 22 49 22q30 0 50.5 -21.5t20.5 -50.5z" />
    <glyph glyph-name="grave" unicode="&#x631;" horiz-adv-x="512" 
d="M507 268q1 -17 1 -45q0 -176 -105 -296q-91 -102 -252 -153q-5 0 -14.5 -1t-14.5 -2q-30 0 -45 17q-16 14 -16 38q-2 49 56 74q133 59 183 107q72 70 75 191q0 -11 -3 37q-1 18 -1 37q0 91 50 100q8 0 11 1q68 0 75 -105z" />
    <glyph glyph-name="a" unicode="&#xfe23;" horiz-adv-x="649" 
d="M668 0h-43q-27 0 -57 14q-34 16 -47 31q-40 -111 -139.5 -201.5t-214.5 -121.5q-11 -3 -25 -4q-22 0 -42 16q-15 15 -15 39q0 43 51 67q111 53 168 98q87 68 111 153q0 7 2 25q0 51 -21 107q-2 11 -2 21q0 28 16 43q13 18 44 20q38 3 62 -44q10 -25 34 -76q33 -43 98 -43
h20v-144z" />
    <glyph glyph-name="b" unicode="&#x632;" horiz-adv-x="516" 
d="M469 550q0 -28 -21.5 -49.5t-50.5 -21.5q-27 0 -48.5 19t-21.5 52q0 30 20 50t50 20t50 -20q21 -23 22 -50zM507 268q1 -17 1 -45q0 -176 -105 -296q-91 -102 -252 -153q-5 0 -14.5 -1t-14.5 -2q-30 0 -45 17q-16 14 -16 38q-2 49 56 74q133 59 183 107q72 70 75 191
q0 -11 -3 37q-1 18 -1 37q0 91 50 100q8 0 11 1q68 0 75 -105z" />
    <glyph glyph-name="c" unicode="&#xfe24;" horiz-adv-x="649" 
d="M475 477q1 -30 -19.5 -50t-50.5 -21t-52 20q-21 26 -21 51q0 27 21 51q22 20 52 21q26 1 49 -21q20 -24 21 -51zM668 0h-43q-27 0 -57 14q-34 16 -47 31q-40 -111 -139.5 -201.5t-214.5 -121.5q-11 -3 -25 -4q-22 0 -42 16q-15 15 -15 39q0 43 51 67q111 53 168 98
q87 68 111 153q0 7 2 25q0 51 -21 107q-2 11 -2 21q0 28 16 43q13 18 44 20q38 3 62 -44q10 -25 34 -76q33 -43 98 -43h20v-144z" />
    <glyph glyph-name="d" unicode="&#x698;" horiz-adv-x="558" 
d="M255 528q0 30 20.5 50t50.5 20q32 0 50 -19q20 -22 20 -51q0 -30 -19.5 -50.5t-50.5 -20.5q-29 -1 -50 19.5t-21 51.5zM428 528q-1 31 19.5 50.5t51.5 19.5q30 0 50.5 -20t20.5 -50t-20.5 -50.5t-50.5 -20.5q-31 -1 -50.5 19.5t-20.5 51.5zM342 678q0 32 21 51.5t48 19.5
q32 0 52 -20t20 -51t-20.5 -50.5t-51.5 -20.5q-27 -1 -48 20t-21 51zM507 268q1 -17 1 -45q0 -176 -105 -296q-91 -102 -252 -153q-5 0 -14.5 -1t-14.5 -2q-30 0 -45 17q-16 14 -16 38q-2 49 56 74q133 59 183 107q72 70 75 191q0 -11 -3 37q-1 18 -1 37q0 91 50 100
q8 0 11 1q68 0 75 -105z" />
    <glyph glyph-name="e" unicode="&#xfe25;" horiz-adv-x="649" 
d="M264 457q0 29 19.5 50t49.5 22q31 1 52 -22t21 -50q0 -31 -21 -51t-52 -21q-29 -1 -49 20.5t-20 51.5zM437 457q0 28 20.5 49.5t49.5 22.5t50.5 -21.5t22.5 -50.5q0 -27 -22 -51q-20 -20 -51 -21q-27 -1 -48.5 20t-21.5 52zM350 607q-1 31 19.5 51t51.5 20t51 -20t20 -51
q0 -30 -21.5 -50.5t-49.5 -20.5q-29 0 -49.5 20t-21.5 51zM668 0h-43q-27 0 -57 14q-34 16 -47 31q-40 -111 -139.5 -201.5t-214.5 -121.5q-11 -3 -25 -4q-22 0 -42 16q-15 15 -15 39q0 43 51 67q111 53 168 98q87 68 111 153q0 7 2 25q0 51 -21 107q-2 11 -2 21q0 28 16 43
q13 18 44 20q38 3 62 -44q10 -25 34 -76q33 -43 98 -43h20v-144z" />
    <glyph glyph-name="f" unicode="&#x633;" horiz-adv-x="1255" 
d="M1253 198q0 -84 -51.5 -140.5t-126.5 -57.5q-89 -1 -126 75q-34 -74 -111 -75q-55 -1 -86 21q0 -158 -80 -260q-95 -120 -274 -120q-158 0 -235 104q-61 81 -62 202q0 81 24 134q22 48 61 48q45 0 46 -54q0 -12 -4 -38l-1 -13q-6 -36 -6 -60q0 -87 51 -132t139 -45
q111 -1 172 60q57 57 57 160q0 38 -24 95t-24 84q0 26 16 44q21 19 47 19q19 0 42 -24q17 -21 34 -41q4 -5 10 -12q36 -28 87 -28q59 0 65 68.5t56 68.5q42 0 52 -54q15 -81 88 -83q46 -1 46 55q0 14 -7 41t-7 39q0 21 14 39q15 15 35 15q44 2 66 -48q17 -37 17 -87z" />
    <glyph glyph-name="g" unicode="&#xfe26;" horiz-adv-x="1350" 
d="M1370 0h-37q-39 0 -77 23q-34 21 -48 47q-35 -69 -128 -70q-47 -1 -87 26q-35 24 -44 49q-34 -74 -111 -75q-55 -1 -86 21q0 -162 -80 -262q-94 -118 -274 -118q-158 0 -235 104q-61 81 -62 202q0 81 24 134q22 48 61 48q45 0 46 -54q0 -12 -4 -38l-1 -13q-6 -36 -6 -60
q0 -87 51 -132t139 -45q111 -1 172 60q57 57 57 160q0 38 -24 95t-24 84q0 26 16 44q21 19 47 19q19 0 42 -24q17 -21 34 -41q4 -5 10 -12q36 -28 87 -28q59 0 71 74q9 60 54 60q44 0 52 -60q11 -74 73 -74q68 0 78 76q8 56 50 56q45 0 56 -61q7 -44 26 -55q19 -16 58 -16
h24v-144z" />
    <glyph glyph-name="h" unicode="&#xfe27;" horiz-adv-x="813" 
d="M829 0h-35q-41 0 -78 23q-32 21 -47 47q-35 -69 -129 -70q-43 0 -85 26q-33 22 -46 49q-31 -74 -119 -75q-111 -1 -147 70q-41 -70 -125 -70h-36v144h22q77 0 90 77q9 58 53 58t52 -58q11 -75 79 -77q66 -2 81 74q12 62 56 63q42 0 50 -58q12 -79 73 -79q68 0 80 77
q9 58 51 58t53 -58q14 -77 85 -77h22v-144z" />
    <glyph glyph-name="i" unicode="&#xfe28;" horiz-adv-x="702" 
d="M701 199q0 -82 -44 -137q-48 -61 -128 -62q-39 -1 -76 21q-40 22 -56 56q-13 -28 -48 -52.5t-73 -24.5q-96 -1 -133 70q-41 -70 -125 -70h-36v144h22q71 0 86 77q11 58 53 58t51 -58q10 -75 84 -77q43 -1 57 35q7 33 15 66q11 37 46 37q41 0 53 -53q19 -85 88 -85
q47 0 47 56q0 17 -8 40q-6 31 -6 41q0 20 13 38q18 17 36 17q44 0 66 -50q16 -37 16 -87z" />
    <glyph glyph-name="j" unicode="&#x634;" horiz-adv-x="1256" 
d="M1253 198q0 -84 -51.5 -140.5t-126.5 -57.5q-89 -1 -126 75q-34 -74 -111 -75q-55 -1 -86 21q0 -158 -80 -260q-95 -120 -274 -120q-158 0 -235 104q-61 81 -62 202q0 81 24 134q22 48 61 48q45 0 46 -54q0 -12 -4 -38l-1 -13q-6 -36 -6 -60q0 -87 51 -132t139 -45
q111 -1 172 60q57 57 57 160q0 38 -24 95t-24 84q0 26 16 44q21 19 47 19q19 0 42 -24q17 -21 34 -41q4 -5 10 -12q36 -28 87 -28q59 0 65 68.5t56 68.5q42 0 52 -54q15 -81 88 -83q46 -1 46 55q0 14 -7 41t-7 39q0 21 14 39q15 15 35 15q44 2 66 -48q17 -37 17 -87z
M772 469q0 31 21.5 51t52.5 20q25 0 48 -20q21 -24 21 -51q0 -30 -22 -51t-47 -21q-30 0 -52 21q-18 18 -22 51zM947 469q0 31 19.5 51t49.5 20q31 0 51.5 -20.5t20.5 -50.5q0 -29 -21.5 -50.5t-50.5 -21.5q-28 0 -48.5 20.5t-20.5 51.5zM860 620q0 43 34 62q14 8 36 9
q30 1 50.5 -19.5t20.5 -51.5q0 -30 -20.5 -50t-50.5 -21q-29 -1 -51 21q-19 18 -19 50z" />
    <glyph glyph-name="k" unicode="&#xfe29;" horiz-adv-x="1349" 
d="M1370 0h-37q-39 0 -77 23q-34 21 -48 47q-35 -69 -128 -70q-47 -1 -87 26q-35 24 -44 49q-34 -74 -111 -75q-55 -1 -86 21q0 -162 -80 -262q-94 -118 -274 -118q-158 0 -235 104q-61 81 -62 202q0 81 24 134q22 48 61 48q45 0 46 -54q0 -12 -4 -38l-1 -13q-6 -36 -6 -60
q0 -87 51 -132t139 -45q111 -1 172 60q57 57 57 160q0 38 -24 95t-24 84q0 26 16 44q21 19 47 19q19 0 42 -24q17 -21 34 -41q4 -5 10 -12q36 -28 87 -28q59 0 71 74q9 60 54 60q44 0 52 -60q11 -74 73 -74q68 0 78 76q8 56 50 56q45 0 56 -61q7 -44 26 -55q19 -16 58 -16
h24v-144zM772 469q0 31 21.5 51t52.5 20q25 0 48 -20q21 -24 21 -51q0 -30 -22 -51t-47 -21q-30 0 -52 21q-18 18 -22 51zM947 469q0 31 19.5 51t49.5 20q31 0 51.5 -20.5t20.5 -50.5q0 -29 -21.5 -50.5t-50.5 -21.5q-28 0 -48.5 20.5t-20.5 51.5zM860 620q0 43 34 62
q14 8 36 9q30 1 50.5 -19.5t20.5 -51.5q0 -30 -20.5 -50t-50.5 -21q-29 -1 -51 21q-19 18 -19 50z" />
    <glyph glyph-name="l" unicode="&#xfe2a;" horiz-adv-x="813" 
d="M829 0h-35q-41 0 -78 23q-32 21 -47 47q-35 -69 -129 -70q-43 0 -85 26q-33 22 -46 49q-31 -74 -119 -75q-111 -1 -147 70q-41 -70 -125 -70h-36v144h22q77 0 90 77q9 58 53 58t52 -58q11 -75 79 -77q66 -2 81 74q12 62 56 63q42 0 50 -58q12 -79 73 -79q68 0 80 77
q9 58 51 58t53 -58q14 -77 85 -77h22v-144zM237 469q-1 27 19 51q22 20 51 20q30 0 50.5 -20.5t20.5 -50.5q1 -26 -21 -49t-50 -23q-30 0 -50 20t-20 52zM409 469q-1 30 20 50.5t52 20.5q29 0 49 -19.5t21 -51.5q1 -29 -21.5 -50.5t-48.5 -21.5q-31 0 -51 21t-21 51z
M322 620q0 31 22 51q16 19 50 20q29 1 49.5 -20t21.5 -51q1 -28 -21 -49t-50 -22q-26 -1 -49 20t-23 51z" />
    <glyph glyph-name="m" unicode="&#xfe2b;" horiz-adv-x="701" 
d="M701 199q0 -82 -44 -137q-48 -61 -128 -62q-39 -1 -76 21q-40 22 -56 56q-13 -28 -48 -52.5t-73 -24.5q-96 -1 -133 70q-41 -70 -125 -70h-36v144h22q71 0 86 77q11 58 53 58t51 -58q10 -75 84 -77q43 -1 57 35q7 33 15 66q11 37 46 37q41 0 53 -53q19 -85 88 -85
q47 0 47 56q0 17 -8 40q-6 31 -6 41q0 20 13 38q18 17 36 17q44 0 66 -50q16 -37 16 -87zM237 469q-1 27 19 51q22 20 51 20q30 0 50.5 -20.5t20.5 -50.5q1 -26 -21 -49t-50 -23q-30 0 -50 20t-20 52zM409 469q-1 30 20 50.5t52 20.5q29 0 49 -19.5t21 -51.5
q1 -29 -21.5 -50.5t-48.5 -21.5q-31 0 -51 21t-21 51zM322 620q0 31 22 51q16 19 50 20q29 1 49.5 -20t21.5 -51q1 -28 -21 -49t-50 -22q-26 -1 -49 20t-23 51z" />
    <glyph glyph-name="n" unicode="&#x635;" horiz-adv-x="1310" 
d="M1309 264q1 -147 -148 -217q-111 -51 -282 -51q-91 0 -127 25q0 -161 -80 -261q-95 -119 -274 -119q-158 0 -235 104q-61 81 -62 202q0 81 24 134q22 48 61 48q45 0 46 -54q0 -12 -4 -38l-1 -13q-6 -36 -6 -60q0 -87 51 -132t139 -45q111 -1 172 60q57 57 57 160
q0 38 -24 95t-24 84q0 26 16 44q21 19 47 19q23 0 62.5 -51t73.5 -54q26 0 68 66q141 219 280 219q76 0 122.5 -44.5t47.5 -120.5zM1188 232q0 60 -65 60q-83 0 -196 -153q121 0 191 28t70 65z" />
    <glyph glyph-name="o" unicode="&#xfe2c;" horiz-adv-x="1357" 
d="M1376 0h-37q-98 0 -154 59q-112 -63 -306 -63q-91 0 -127 25q0 -161 -80 -261q-95 -119 -274 -119q-158 0 -235 104q-61 81 -62 202q0 81 24 134q22 48 61 48q45 0 46 -54q0 -12 -4 -38l-1 -13q-6 -36 -6 -60q0 -87 51 -132t139 -45q111 -1 172 60q57 57 57 160
q0 38 -24 95t-24 84q0 26 16 44q21 19 47 19q23 0 62.5 -51t73.5 -54q26 0 68 66q141 219 280 219q76 0 122.5 -44.5t47.5 -120.5q1 -49 -30 -108q25 -12 69 -12h28v-144zM1188 232q0 60 -65 60q-83 0 -196 -153q121 0 191 28t70 65z" />
    <glyph glyph-name="p" unicode="&#xfe2d;" horiz-adv-x="833" 
d="M850 0h-36q-99 0 -153 59q-113 -63 -307 -63q-89 0 -137 13q-47 18 -66 59q-45 -68 -131 -68h-38v144h22q86 0 103 94q8 46 49 46q42 0 49 -46q13 -92 62 -94q23 -1 66 66q142 219 281 219q82 0 125.5 -48.5t43.5 -116.5q0 -55 -28 -108q24 -12 69 -12h26v-144zM663 232
q1 28 -17.5 44t-47.5 16q-81 0 -195 -153q122 0 192 28q67 28 68 65z" />
    <glyph glyph-name="q" unicode="&#xfe2e;" horiz-adv-x="785" 
d="M783 264q0 -150 -149 -218q-109 -50 -280 -50q-100 0 -142.5 16.5t-60.5 55.5q-45 -68 -131 -68h-38v144h22q86 0 103 94q8 46 49 46q42 0 49 -46q13 -92 62 -94q23 -1 66 66q142 219 281 219q82 0 125.5 -48.5t43.5 -116.5zM663 232q1 28 -17.5 44t-47.5 16
q-81 0 -195 -153q122 0 192 28q67 28 68 65z" />
    <glyph glyph-name="r" unicode="&#x636;" horiz-adv-x="1313" 
d="M1309 264q1 -147 -148 -217q-111 -51 -282 -51q-91 0 -127 25q0 -161 -80 -261q-95 -119 -274 -119q-158 0 -235 104q-61 81 -62 202q0 81 24 134q22 48 61 48q45 0 46 -54q0 -12 -4 -38l-1 -13q-6 -36 -6 -60q0 -87 51 -132t139 -45q111 -1 172 60q57 57 57 160
q0 38 -24 95t-24 84q0 26 16 44q21 19 47 19q23 0 62.5 -51t73.5 -54q26 0 68 66q141 219 280 219q76 0 122.5 -44.5t47.5 -120.5zM1188 232q0 60 -65 60q-83 0 -196 -153q121 0 191 28t70 65zM1085 597q0 -32 -21 -50q-18 -21 -50 -22q-30 -1 -49 22q-21 18 -22 50
q-1 26 22 50q20 21 49 21q30 0 50.5 -22t20.5 -49z" />
    <glyph glyph-name="s" unicode="&#xfe30;" horiz-adv-x="1356" 
d="M1376 0h-37q-98 0 -154 59q-112 -63 -306 -63q-91 0 -127 25q0 -161 -80 -261q-95 -119 -274 -119q-158 0 -235 104q-61 81 -62 202q0 81 24 134q22 48 61 48q45 0 46 -54q0 -12 -4 -38l-1 -13q-6 -36 -6 -60q0 -87 51 -132t139 -45q111 -1 172 60q57 57 57 160
q0 38 -24 95t-24 84q0 26 16 44q21 19 47 19q23 0 62.5 -51t73.5 -54q26 0 68 66q141 219 280 219q76 0 122.5 -44.5t47.5 -120.5q1 -49 -30 -108q25 -12 69 -12h28v-144zM1188 232q0 60 -65 60q-83 0 -196 -153q121 0 191 28t70 65zM1085 597q0 -32 -21 -50
q-18 -21 -50 -22q-30 -1 -49 22q-21 18 -22 50q-1 26 22 50q20 21 49 21q30 0 50.5 -22t20.5 -49z" />
    <glyph glyph-name="t" unicode="&#xfe31;" horiz-adv-x="834" 
d="M850 0h-36q-99 0 -153 59q-113 -63 -307 -63q-89 0 -137 13q-47 18 -66 59q-45 -68 -131 -68h-38v144h22q86 0 103 94q8 46 49 46q42 0 49 -46q13 -92 62 -94q23 -1 66 66q142 219 281 219q82 0 125.5 -48.5t43.5 -116.5q0 -55 -28 -108q24 -12 69 -12h26v-144zM663 232
q1 28 -17.5 44t-47.5 16q-81 0 -195 -153q122 0 192 28q67 28 68 65zM597 595q0 -31 -21 -50q-23 -22 -50 -22q-28 -1 -49 22q-21 16 -22 50q0 30 22 50q17 19 49 19q31 0 50 -19q21 -22 21 -50z" />
    <glyph glyph-name="u" unicode="&#xfe32;" horiz-adv-x="794" 
d="M783 264q0 -150 -149 -218q-109 -50 -280 -50q-100 0 -142.5 16.5t-60.5 55.5q-45 -68 -131 -68h-38v144h22q86 0 103 94q8 46 49 46q42 0 49 -46q13 -92 62 -94q23 -1 66 66q142 219 281 219q82 0 125.5 -48.5t43.5 -116.5zM663 232q1 28 -17.5 44t-47.5 16
q-81 0 -195 -153q122 0 192 28q67 28 68 65zM597 595q0 -31 -21 -50q-23 -22 -50 -22q-28 -1 -49 22q-21 16 -22 50q0 30 22 50q17 19 49 19q31 0 50 -19q21 -22 21 -50z" />
    <glyph glyph-name="v" unicode="&#x637;" horiz-adv-x="776" 
d="M774 264q0 -132 -122 -202q-107 -62 -257 -62h-123q-170 0 -171 91q0 55 93 55q67 0 88 21q17 17 25 70q8 49 8 117q0 95 -20 319q-3 37 22 66q19 22 48 22q57 0 61 -72q10 -200 10 -228q0 -93 -10 -134q36 41 84 67q53 28 97 28q66 1 116.5 -44.5t50.5 -113.5zM657 232
q0 52 -78 52q-50 0 -130 -66q-13 -11 -82 -79q85 0 164 15q126 25 126 78z" />
    <glyph glyph-name="w" unicode="&#xfe33;" horiz-adv-x="838" 
d="M856 0h-34q-47 0 -96.5 19t-66.5 48q-106 -67 -264 -67h-123q-170 0 -171 91q0 55 93 55q67 0 88 21q17 17 25 70q8 49 8 117q0 95 -20 319q-3 37 22 66q19 22 48 22q57 0 61 -72q10 -200 10 -228q0 -93 -10 -134q36 41 84 67q53 28 97 28q66 1 116 -40q51 -44 51 -112
q0 -51 -29 -105q28 -21 83 -21h28v-144zM657 232q0 52 -78 52q-50 0 -130 -66q-13 -11 -82 -79q85 0 164 15q126 25 126 78z" />
    <glyph glyph-name="x" unicode="&#xfe34;" horiz-adv-x="642" 
d="M660 0h-36q-111 0 -163 67q-104 -67 -262 -67h-217v144h28q53 0 76 23q18 22 25 70q5 31 6 117q1 135 -19 319q0 42 20 65t49 23q59 0 63 -72q9 -153 9 -228q0 -98 -9 -134q38 42 86 67q52 28 94 28q71 1 119 -41t50 -111q1 -48 -30 -105q25 -21 84 -21h27v-144zM460 232
q1 52 -78 52q-57 0 -128 -66q-7 -4 -85 -79q138 0 217 28q73 27 74 65z" />
    <glyph glyph-name="y" unicode="&#xfe35;" horiz-adv-x="580" 
d="M579 264q1 -94 -78 -168q-103 -96 -302 -96h-217v144h28q53 0 76 23q18 22 25 70q5 31 6 117q1 135 -19 319q0 42 20 65t49 23q59 0 63 -72q9 -153 9 -228q0 -98 -9 -134q38 42 86 67q52 28 94 28q69 1 118 -44t51 -114zM460 232q1 52 -78 52q-57 0 -128 -66
q-7 -4 -85 -79q138 0 217 28q73 27 74 65z" />
    <glyph glyph-name="z" unicode="&#x638;" horiz-adv-x="778" 
d="M774 264q0 -132 -122 -202q-107 -62 -257 -62h-123q-170 0 -171 91q0 55 93 55q67 0 88 21q17 17 25 70q8 49 8 117q0 95 -20 319q-3 37 22 66q19 22 48 22q57 0 61 -72q10 -200 10 -228q0 -93 -10 -134q36 41 84 67q53 28 97 28q66 1 116.5 -44.5t50.5 -113.5zM657 232
q0 52 -78 52q-50 0 -130 -66q-13 -11 -82 -79q85 0 164 15q126 25 126 78zM696 615q1 -27 -22 -48q-16 -22 -49 -22q-30 -1 -50 22q-20 18 -21 48q0 30 21 51q18 21 50 22q28 0 49.5 -23t21.5 -50z" />
    <glyph glyph-name="braceleft" unicode="&#xfe36;" horiz-adv-x="838" 
d="M856 0h-34q-47 0 -96.5 19t-66.5 48q-106 -67 -264 -67h-123q-170 0 -171 91q0 55 93 55q67 0 88 21q17 17 25 70q8 49 8 117q0 95 -20 319q-3 37 22 66q19 22 48 22q57 0 61 -72q10 -200 10 -228q0 -93 -10 -134q36 41 84 67q53 28 97 28q66 1 116 -40q51 -44 51 -112
q0 -51 -29 -105q28 -21 83 -21h28v-144zM657 232q0 52 -78 52q-50 0 -130 -66q-13 -11 -82 -79q85 0 164 15q126 25 126 78zM696 615q1 -27 -22 -48q-16 -22 -49 -22q-30 -1 -50 22q-20 18 -21 48q0 30 21 51q18 21 50 22q28 0 49.5 -23t21.5 -50z" />
    <glyph glyph-name="bar" unicode="&#xfe37;" horiz-adv-x="644" 
d="M660 0h-36q-111 0 -163 67q-104 -67 -262 -67h-217v144h28q53 0 76 23q18 22 25 70q5 31 6 117q1 135 -19 319q0 42 20 65t49 23q59 0 63 -72q9 -153 9 -228q0 -98 -9 -134q38 42 86 67q52 28 94 28q71 1 119 -41t50 -111q1 -48 -30 -105q25 -21 84 -21h27v-144zM460 232
q1 52 -78 52q-57 0 -128 -66q-7 -4 -85 -79q138 0 217 28q73 27 74 65zM505 615q0 -31 -21 -48q-18 -22 -49 -22q-33 -1 -51 22q-19 18 -20 48q-1 29 19.5 50.5t51.5 22.5q27 0 48.5 -22t21.5 -51z" />
    <glyph glyph-name="braceright" unicode="&#xfe38;" horiz-adv-x="580" 
d="M579 264q1 -94 -78 -168q-103 -96 -302 -96h-217v144h28q53 0 76 23q18 22 25 70q5 31 6 117q1 135 -19 319q0 42 20 65t49 23q59 0 63 -72q9 -153 9 -228q0 -98 -9 -134q38 42 86 67q52 28 94 28q69 1 118 -44t51 -114zM460 232q1 52 -78 52q-57 0 -128 -66
q-7 -4 -85 -79q138 0 217 28q73 27 74 65zM505 615q0 -31 -21 -48q-18 -22 -49 -22q-33 -1 -51 22q-19 18 -20 48q-1 29 19.5 50.5t51.5 22.5q27 0 48.5 -22t21.5 -51z" />
    <glyph glyph-name="asciitilde" unicode="&#x639;" horiz-adv-x="662" 
d="M516 -457q-206 -1 -315 87q-99 80 -99 228q0 164 160 281q-87 60 -87 158q0 94 64.5 159t158.5 65q56 0 110 -30.5t55 -73.5q1 -52 -42 -52q-13 0 -54 16t-75 16q-42 0 -68.5 -23t-26.5 -59q0 -83 127 -83q23 0 75 9l85 14q7 1 14 1q64 0 64 -61q0 -54 -51 -63
q-387 -70 -387 -266q0 -74 73 -122q80 -53 238 -56q28 -1 116 6q32 3 48.5 -13.5t16.5 -45.5q0 -90 -200 -92z" />
    <glyph glyph-name="uniFE39" unicode="&#xfe39;" horiz-adv-x="666" 
d="M685 0h-39q-141 0 -253 122q-70 -44 -117 -109q-54 -74 -55 -147q-2 -175 294 -178q28 -1 110 5q5 0 15 1q40 0 61 -28q10 -13 10 -35q0 -59 -85 -78q-42 -10 -132 -10q-197 0 -292 73q-101 77 -101 242q0 196 194 350q-75 80 -75 134q0 76 77 115q60 30 143 30
q81 0 135 -25q72 -34 72 -106q0 -92 -139 -168q58 -44 153 -44h24v-144zM504 340q0 27 -63 27q-77 1 -80 -31q0 -21 56 -69q87 41 87 73z" />
    <glyph glyph-name="uniFE3A" unicode="&#xfe3a;" horiz-adv-x="553" 
d="M571 0h-56q-76 0 -150 24q-68 23 -109 54q-49 -32 -107 -53q-72 -25 -126 -25h-41v144h33q103 0 142 31q-85 86 -85 157q0 54 63.5 93.5t154.5 39.5q76 0 134 -33q63 -36 63 -94q0 -90 -111 -164q21 -19 141 -30h54v-144zM350 317q0 31 -74 31t-74 -30q0 -18 28 -47
q25 -27 45 -36q15 6 43 32q32 30 32 50z" />
    <glyph glyph-name="uniFE3B" unicode="&#xfe3b;" horiz-adv-x="532" 
d="M481 58q-147 -58 -385 -58h-114v144h124q-30 69 -30 120q0 65 53 124q58 66 149 67q60 1 113 -34q50 -33 50 -74q0 -47 -39 -47q-20 0 -50 15q-36 13 -63 13q-45 0 -74 -23q-25 -19 -25 -54q0 -43 35 -69q31 -25 75 -25q32 0 76 9q38 7 76 15q10 2 20 2q60 0 60 -53
q0 -51 -51 -72z" />
    <glyph glyph-name="uni063A" unicode="&#x63a;" horiz-adv-x="662" 
d="M516 -457q-206 -1 -315 87q-99 80 -99 228q0 164 160 281q-87 60 -87 158q0 94 64.5 159t158.5 65q56 0 110 -30.5t55 -73.5q1 -52 -42 -52q-13 0 -54 16t-75 16q-42 0 -68.5 -23t-26.5 -59q0 -83 127 -83q23 0 75 9l85 14q7 1 14 1q64 0 64 -61q0 -54 -51 -63
q-387 -70 -387 -266q0 -74 73 -122q80 -53 238 -56q28 -1 116 6q32 3 48.5 -13.5t16.5 -45.5q0 -90 -200 -92zM419 688q0 -33 -22 -51q-15 -19 -49 -22q-29 0 -49.5 22t-21.5 51q-1 27 21.5 48.5t49.5 22.5t49 -22t22 -49z" />
    <glyph glyph-name="uniFE3C" unicode="&#xfe3c;" horiz-adv-x="669" 
d="M685 0h-39q-141 0 -253 122q-70 -44 -117 -109q-54 -74 -55 -147q-2 -175 294 -178q28 -1 110 5q5 0 15 1q40 0 61 -28q10 -13 10 -35q0 -59 -85 -78q-42 -10 -132 -10q-197 0 -292 73q-101 77 -101 242q0 196 194 350q-75 80 -75 134q0 76 77 115q60 30 143 30
q81 0 135 -25q72 -34 72 -106q0 -92 -139 -168q58 -44 153 -44h24v-144zM504 340q0 27 -63 27q-77 1 -80 -31q0 -21 56 -69q87 41 87 73zM516 648q0 -30 -21 -51t-51 -21t-49 20.5t-22 51.5q0 32 22 49q19 22 49 22q31 1 51 -22q21 -19 21 -49z" />
    <glyph glyph-name="uniFE3D" unicode="&#xfe3d;" horiz-adv-x="553" 
d="M571 0h-56q-76 0 -150 24q-68 23 -109 54q-49 -32 -107 -53q-72 -25 -126 -25h-41v144h33q103 0 142 31q-85 86 -85 157q0 54 63.5 93.5t154.5 39.5q76 0 134 -33q63 -36 63 -94q0 -90 -111 -164q21 -19 141 -30h54v-144zM350 317q0 31 -74 31t-74 -30q0 -18 28 -47
q25 -27 45 -36q15 6 43 32q32 30 32 50zM361 629q0 -30 -20 -51t-51 -21q-29 -1 -49 20.5t-23 51.5q0 27 20.5 48.5t51.5 22.5q29 0 50 -21t21 -50z" />
    <glyph glyph-name="uniFE3E" unicode="&#xfe3e;" horiz-adv-x="534" 
d="M481 58q-147 -58 -385 -58h-114v144h124q-30 69 -30 120q0 65 53 124q58 66 149 67q60 1 113 -34q50 -33 50 -74q0 -47 -39 -47q-20 0 -50 15q-36 13 -63 13q-45 0 -74 -23q-25 -19 -25 -54q0 -43 35 -69q31 -25 75 -25q32 0 76 9q38 7 76 15q10 2 20 2q60 0 60 -53
q0 -51 -51 -72zM279 633q0 -31 -20 -51q-23 -21 -49 -22q-27 -1 -50 22q-22 20 -22 51q-1 29 22 50q20 19 50 20q29 1 49 -20.5t20 -49.5z" />
    <glyph glyph-name="uni0641" unicode="&#x641;" horiz-adv-x="1040" 
d="M1038 249q1 -155 -162 -226q-135 -58 -407 -58q-368 0 -368 217q0 66 23 123.5t61 58.5q44 1 44 -46q0 -20 -6.5 -47t-6.5 -44q0 -53 39 -78q58 -37 222 -37h76q147 0 259 32q127 37 124 93q-27 -31 -97 -42q-66 0 -105 46q-27 32 -27 80q0 74 41 142q46 79 114 80
q69 2 120 -78q56 -85 56 -216zM911 352q0 24 -20.5 45.5t-40.5 21.5t-34.5 -16t-14.5 -39q0 -49 47 -49q63 -1 63 37zM892 697q1 -26 -20 -50q-21 -20 -50 -21t-52 21q-18 21 -21 50q0 30 21 51q17 17 52 21q30 0 49.5 -20.5t20.5 -51.5z" />
    <glyph glyph-name="uniFE3F" unicode="&#xfe3f;" horiz-adv-x="1091" 
d="M1109 0h-72q-101 0 -162 46q-28 -23 -136 -49q-126 -31 -270 -32q-368 -3 -368 217q0 66 23 123.5t61 58.5q44 1 44 -46q0 -20 -6.5 -47t-6.5 -44q0 -53 39 -78q58 -37 222 -37h76q55 0 114.5 10t93.5 24q-37 50 -37 98q0 72 59 135t117 63q66 0 107 -50q37 -47 37 -126
q0 -86 -48 -122h113v-144zM948 251q1 20 -14 41.5t-37 21.5q-26 0 -48.5 -22.5t-22.5 -47.5q0 -23 21 -38t43 -15q18 0 38 21t20 39zM952 597q0 -30 -22 -49q-16 -18 -50 -22q-27 0 -51 22q-18 17 -19 49t20.5 52t49.5 20q30 0 50 -21q22 -24 22 -51z" />
    <glyph glyph-name="uniFE40" unicode="&#xfe40;" horiz-adv-x="430" 
d="M448 0h-73q-37 0 -90 14.5t-69 28.5q-60 -43 -163 -43h-71v144h112q-36 50 -36 100q0 69 53.5 133.5t120.5 64.5q69 0 107 -51t38 -127q0 -78 -48 -120h119v-144zM281 250q0 23 -15.5 43.5t-37.5 21.5q-26 0 -49 -26q-19 -22 -19 -46q-1 -23 18.5 -38t42.5 -15
q21 0 38 20q21 15 22 40zM296 598q0 -30 -20.5 -49.5t-49.5 -20.5q-31 -1 -50 21q-21 18 -21 49q0 30 21 51t50 21q30 0 50 -20.5t20 -51.5z" />
    <glyph glyph-name="uniFE41" unicode="&#xfe41;" horiz-adv-x="367" 
d="M365 249q0 -249 -307 -249h-76v144h94q97 0 152 30q42 23 40 59q-9 -9 -39 -22q-39 -16 -64 -16q-57 0 -94.5 35t-38.5 91q-1 71 35 138q45 83 122 84q77 2 126.5 -78t49.5 -216zM239 352q0 24 -18.5 45t-42.5 22q-20 1 -35 -21q-14 -13 -14 -38q0 -45 47 -45q63 0 63 37
zM237 699q0 -27 -21.5 -49.5t-51.5 -22.5t-50 21t-20 51t21.5 50t48.5 20q33 0 52.5 -19.5t20.5 -50.5z" />
    <glyph glyph-name="uni06A4" unicode="&#x6a4;" horiz-adv-x="1040" 
d="M1038 249q1 -155 -162 -226q-135 -58 -407 -58q-368 0 -368 217q0 66 23 123.5t61 58.5q44 1 44 -46q0 -20 -6.5 -47t-6.5 -44q0 -53 39 -78q58 -37 222 -37h76q147 0 259 32q127 37 124 93q-27 -31 -97 -42q-66 0 -105 46q-27 32 -27 80q0 74 41 142q46 79 114 80
q69 2 120 -78q56 -85 56 -216zM911 352q0 24 -20.5 45.5t-40.5 21.5t-34.5 -16t-14.5 -39q0 -49 47 -49q63 -1 63 37zM668 706q-1 31 20 51.5t51 21.5q28 1 49 -20t21 -53q0 -29 -20.5 -49.5t-49.5 -21.5q-27 -1 -50 21q-20 18 -21 50zM842 706q0 30 18 52q22 20 52 21
q25 1 51 -21q20 -26 20 -52q1 -28 -20.5 -49.5t-50.5 -21.5q-26 -1 -52 21q-18 22 -18 50zM755 857q0 31 22 51q16 20 48 20q29 0 50 -21t22 -50q0 -28 -22 -51q-20 -19 -50 -19q-31 0 -50.5 19.5t-19.5 50.5z" />
    <glyph glyph-name="uniFE42" unicode="&#xfe42;" horiz-adv-x="1091" 
d="M1109 0h-72q-101 0 -162 46q-28 -23 -136 -49q-126 -31 -270 -32q-368 -3 -368 217q0 66 23 123.5t61 58.5q44 1 44 -46q0 -20 -6.5 -47t-6.5 -44q0 -53 39 -78q58 -37 222 -37h76q55 0 114.5 10t93.5 24q-37 50 -37 98q0 72 59 135t117 63q66 0 107 -50q37 -47 37 -126
q0 -86 -48 -122h113v-144zM948 251q1 20 -14 41.5t-37 21.5q-26 0 -48.5 -22.5t-22.5 -47.5q0 -23 21 -38t43 -15q18 0 38 21t20 39zM712 618q-1 31 20 51.5t51 21.5q28 1 49 -20t21 -53q0 -29 -20.5 -49.5t-49.5 -21.5q-27 -1 -50 21q-20 18 -21 50zM886 618q0 30 18 52
q22 20 52 21q25 1 51 -21q20 -26 20 -52q1 -28 -20.5 -49.5t-50.5 -21.5q-26 -1 -52 21q-18 22 -18 50zM799 769q0 31 22 51q16 20 48 20q29 0 50 -21t22 -50q0 -28 -22 -51q-20 -19 -50 -19q-31 0 -50.5 19.5t-19.5 50.5z" />
    <glyph glyph-name="uniFE43" unicode="&#xfe43;" horiz-adv-x="430" 
d="M448 0h-73q-37 0 -90 14.5t-69 28.5q-60 -43 -163 -43h-71v144h112q-36 50 -36 100q0 69 53.5 133.5t120.5 64.5q69 0 107 -51t38 -127q0 -78 -48 -120h119v-144zM281 250q0 23 -15.5 43.5t-37.5 21.5q-26 0 -49 -26q-19 -22 -19 -46q-1 -23 18.5 -38t42.5 -15
q21 0 38 20q21 15 22 40zM74 601q-1 30 20 50.5t51 21.5q28 1 49 -19.5t21 -52.5q0 -30 -20.5 -50.5t-49.5 -21.5q-27 -1 -50 21q-20 18 -21 51zM248 601q0 29 18 51q22 20 52 21q25 1 51 -21q20 -25 20 -51q1 -28 -20.5 -49.5t-50.5 -22.5q-26 -1 -52 21q-18 22 -18 51z
M161 751q0 32 22 51q16 21 48 21q29 0 50 -21t22 -51q0 -28 -21 -49t-51 -21q-31 0 -50.5 19.5t-19.5 50.5z" />
    <glyph glyph-name="uniFE44" unicode="&#xfe44;" horiz-adv-x="367" 
d="M365 249q0 -249 -307 -249h-76v144h94q97 0 152 30q42 23 40 59q-9 -9 -39 -22q-39 -16 -64 -16q-57 0 -94.5 35t-38.5 91q-1 71 35 138q45 83 122 84q77 2 126.5 -78t49.5 -216zM239 352q0 24 -18.5 45t-42.5 22q-20 1 -35 -21q-14 -13 -14 -38q0 -45 47 -45q63 0 63 37
zM19 689q-1 30 20 50.5t51 21.5q28 1 49 -19.5t21 -52.5q0 -30 -20.5 -50.5t-49.5 -21.5q-27 -1 -50 21q-20 18 -21 51zM193 689q0 29 18 51q22 20 52 21q25 1 51 -21q20 -25 20 -51q1 -28 -20.5 -49.5t-50.5 -22.5q-26 -1 -52 21q-18 22 -18 51zM106 839q0 32 22 51
q16 21 48 21q29 0 50 -21t22 -51q0 -28 -21 -49t-51 -21q-31 0 -50.5 19.5t-19.5 50.5z" />
    <glyph glyph-name="uni0642" unicode="&#x642;" horiz-adv-x="770" 
d="M769 110q0 -176 -97.5 -274.5t-274.5 -98.5q-146 0 -228 95q-67 78 -68 192q0 60 15 113q22 75 67 75q47 0 47 -50q0 -9 -6 -51q-8 -32 -8 -59q0 -84 56 -129q51 -41 137 -41q109 0 176 42q83 51 77 153q-33 -38 -101 -38q-79 0 -114 46q-26 33 -27 81q-1 76 39 148
q46 83 124 84q91 1 144 -103q42 -84 42 -185zM638 194q-11 70 -59 72q-20 1 -42 -17q-16 -22 -16 -39q0 -46 55 -47q47 -1 62 31zM721 562q0 -29 -20 -49.5t-51 -20.5q-43 0 -62 35q-8 14 -8 35q-1 30 19.5 51t50.5 21q32 0 51.5 -20.5t19.5 -51.5zM549 562q1 -24 -21 -50
q-25 -20 -51 -20q-29 0 -49.5 20t-20.5 50q0 29 20.5 50.5t49.5 21.5t50 -20.5t22 -51.5z" />
    <glyph glyph-name="uniFE45" unicode="&#xfe45;" horiz-adv-x="814" 
d="M833 0h-99q-14 -111 -87 -193q-95 -104 -250 -104t-232 93q-63 76 -64 194q-1 83 29 145q22 47 59 48q43 0 43 -51q0 -19 -5 -55q-7 -43 -7 -59q0 -77 49.5 -124t140.5 -47q122 0 182 68q38 44 39 85h-35q-100 0 -143 35.5t-43 117.5q0 67 43 131q48 71 116 71
q76 0 122 -78q35 -59 42 -133h100v-144zM627 139q0 37 -15 61q-19 30 -53 30q-44 0 -46 -53q-2 -38 77 -38h37zM719 515q0 -28 -20 -50t-51 -23q-29 -1 -49 21.5t-20 51.5q0 31 18 48q18 21 51 21q34 0 52.5 -20t18.5 -49zM547 515q0 -30 -21 -51t-51 -22q-29 -1 -49 21.5
t-21 51.5q-1 30 21 48q19 21 49 21q31 0 51.5 -21.5t20.5 -47.5z" />
    <glyph glyph-name="uniFE46" unicode="&#xfe46;" horiz-adv-x="430" 
d="M448 0h-73q-37 0 -90 14.5t-69 28.5q-60 -43 -163 -43h-71v144h112q-36 50 -36 100q0 69 53.5 133.5t120.5 64.5q69 0 107 -51t38 -127q0 -78 -48 -120h119v-144zM281 250q0 23 -15.5 43.5t-37.5 21.5q-26 0 -49 -26q-19 -22 -19 -46q-1 -23 18.5 -38t42.5 -15
q21 0 38 20q21 15 22 40zM380 597q0 -29 -19.5 -48.5t-52.5 -22.5q-27 0 -49 22q-20 19 -20 49t20 51t49 21q31 0 51.5 -20.5t20.5 -51.5zM207 597q0 -31 -21 -49q-16 -18 -50 -22q-28 0 -49 21t-22 50t20.5 50.5t50.5 21.5q31 0 51 -22t20 -50z" />
    <glyph glyph-name="uniFE47" unicode="&#xfe47;" horiz-adv-x="367" 
d="M365 249q0 -249 -307 -249h-76v144h94q97 0 152 30q42 23 40 59q-9 -9 -39 -22q-39 -16 -64 -16q-57 0 -94.5 35t-38.5 91q-1 71 35 138q45 83 122 84q77 2 126.5 -78t49.5 -216zM239 352q0 24 -18.5 45t-42.5 22q-20 1 -35 -21q-14 -13 -14 -38q0 -45 47 -45q63 0 63 37
zM327 694q0 -29 -21.5 -50t-50.5 -21q-28 -1 -48.5 20t-21.5 51t19.5 50.5t50.5 21.5q29 0 50 -21.5t22 -50.5zM154 694q1 -29 -21 -50t-49 -21q-29 -1 -50.5 22.5t-21.5 48.5q0 31 20 51t52 21q28 0 48.5 -22t21.5 -50z" />
    <glyph glyph-name="uni0643" unicode="&#x643;" horiz-adv-x="707" 
d="M485 353q1 -48 -64 -76q-49 -21 -102 -21q-37 0 -37 34q0 22 60 35.5t60 21.5t-54.5 29t-54.5 59q0 31 37 66q35 32 68 33q33 0 33 -31q0 -15 -29.5 -31t-29.5 -29q0 -7 56 -32t57 -58zM706 254q0 -121 -29 -173q-54 -93 -235 -93h-59q-110 0 -171 12q-111 22 -111 91
q0 76 61 76q19 0 66.5 -13.5t91.5 -13.5h111q102 0 136 17q27 15 27 50q0 12 -1 24q-1 6 -1 25l-12 419q-1 41 16.5 62t43.5 22q25 1 45 -21q16 -17 21 -56v-428z" />
    <glyph glyph-name="uniFE48" unicode="&#xfe48;" horiz-adv-x="925" 
d="M574 377q0 -49 -64 -76q-50 -21 -101 -22q-38 0 -38 36q0 22 59.5 32.5t61.5 23.5q0 5 -29 16q-36 14 -52 25q-29 19 -29 46q-1 33 36.5 66t71.5 33q30 0 31 -32q1 -13 -29 -29t-31 -28q0 -9 56.5 -34.5t56.5 -56.5zM944 0h-52q-108 0 -146 99q-60 -134 -318 -134
q-326 0 -327 241q0 64 27 130q25 61 61 61q46 0 46 -44q0 -17 -9.5 -51t-9.5 -51q0 -139 189 -139h23q278 0 275 162l-9 411q-1 31 20 55q17 20 45 20q23 0 43 -19.5t20 -52.5v-384q0 -81 9 -109q19 -51 83 -51h30v-144z" />
    <glyph glyph-name="uni06A9" unicode="&#x6a9;" horiz-adv-x="1023" 
d="M1087 644q-193 -47 -332 -101q-15 -9 -15 -20q0 -13 12 -22q228 -176 228 -297q0 -238 -511 -239q-368 0 -368 217q0 66 23 123.5t61 58.5q44 1 44 -46q0 -20 -6.5 -47t-6.5 -44q0 -53 39 -78q58 -37 222 -37h22q148 0 241 19q124 25 124 68q0 31 -104 121
q-117 103 -137 138q-12 21 -12 58q0 74 52 107q119 72 379 135q13 3 27 3q32 0 54 -20q17 -15 17 -40q0 -45 -53 -57z" />
    <glyph glyph-name="uniFE49" unicode="&#xfe49;" horiz-adv-x="1244" 
d="M1263 0h-43q-152 0 -255 146q-29 -117 -212 -158q-99 -22 -284 -23q-368 -2 -368 217q0 66 23 123.5t61 58.5q44 1 44 -46q0 -20 -6.5 -47t-6.5 -44q0 -53 39 -78q58 -37 222 -37h22q148 0 241 19q124 25 124 68q0 31 -104 121q-117 103 -137 138q-12 21 -12 59
q0 75 52 106q138 80 379 135q14 3 27 3q31 0 54 -20q17 -14 17 -40q0 -45 -53 -57q-190 -47 -332 -101q-15 -9 -15 -20q0 -13 12 -22q91 -71 186 -168q38 -39 117 -116q78 -73 156 -73h52v-144z" />
    <glyph glyph-name="uniFE4A" unicode="&#xfe4a;" horiz-adv-x="648" 
d="M666 0h-42q-152 0 -257 146q-23 -95 -123 -125q-70 -21 -224 -21h-38v144h54q107 0 143 3q88 8 89 52q1 29 -105 121q-113 98 -137 138q-11 25 -12 58q-1 73 53 107q63 38 191 83q125 44 198 54q8 1 18 1q30 0 52 -20q19 -17 20 -40q1 -44 -56 -57q-171 -40 -330 -101
q-15 -7 -17 -19q0 -13 13 -23q58 -47 186 -168q38 -39 117 -116q79 -73 156 -73h51v-144z" />
    <glyph glyph-name="uniFE4B" unicode="&#xfe4b;" horiz-adv-x="426" 
d="M490 644q-151 -33 -330 -101q-16 -7 -17 -20q0 -12 13 -22q228 -175 229 -297q1 -132 -124 -177q-74 -27 -236 -27h-43v144h30q101 0 145 3q111 9 111 52q0 30 -105 121q-113 98 -137 138q-11 25 -12 58q-1 73 53 107q60 37 198 86q147 52 207 52q32 0 54 -20
q19 -17 20 -40q1 -45 -56 -57z" />
    <glyph glyph-name="uni06AF" unicode="&#x6af;" horiz-adv-x="1023" 
d="M1056 776q-254 -66 -381 -129q-22 -11 -39 -2q-14 7 -14 28q0 31 29 46q141 75 380 131q9 3 17 3q43 0 44 -39q1 -29 -36 -38zM1104 601q-203 -47 -332 -100q-12 -6 -14 -21q0 -12 12 -22q210 -135 210 -254q0 -238 -511 -239q-368 0 -368 217q0 66 23 123.5t61 58.5
q44 1 44 -46q0 -20 -6.5 -47t-6.5 -44q0 -53 39 -78q58 -37 222 -37h22q148 0 241 19q124 25 124 68q0 34 -95 101q-105 76 -129 117q-11 19 -11 57q0 75 54 108q162 100 376 133q13 4 29 4q33 0 51.5 -17.5t18.5 -41.5q0 -47 -54 -59z" />
    <glyph glyph-name="uniFE4C" unicode="&#xfe4c;" horiz-adv-x="1244" 
d="M1056 776q-254 -66 -381 -129q-22 -11 -39 -2q-14 7 -14 28q0 31 29 46q141 75 380 131q9 3 17 3q43 0 44 -39q1 -29 -36 -38zM1263 0h-43q-152 0 -255 146q-29 -117 -212 -158q-99 -22 -284 -23q-368 -2 -368 217q0 66 23 123.5t61 58.5q44 1 44 -46q0 -20 -6.5 -47
t-6.5 -44q0 -53 39 -78q58 -37 222 -37h22q148 0 241 19q124 25 124 68q0 34 -95 101q-105 76 -129 117q-11 19 -11 58q0 75 54 107q170 101 376 133q13 4 29 4q32 0 51 -17.5t19 -41.5q0 -46 -54 -59q-229 -56 -332 -100q-12 -6 -14 -21q0 -12 12 -22q32 -21 79 -51
q29 -22 89 -74q38 -39 118 -116q78 -73 155 -73h52v-144z" />
    <glyph glyph-name="uniFE4D" unicode="&#xfe4d;" horiz-adv-x="648" 
d="M459 776q-245 -63 -380 -129q-22 -11 -39 -2q-15 7 -15 28q0 31 29 46q140 74 381 131q9 3 17 3q43 0 43 -39q0 -29 -36 -38zM666 0h-42q-152 0 -257 146q-23 -95 -123 -125q-70 -21 -224 -21h-38v144h54q107 0 143 3q88 8 89 52q1 34 -94 101q-107 76 -129 117
q-13 23 -13 57q-1 74 54 108q147 92 387 136q8 1 19 1q28 0 48.5 -16t21.5 -43q1 -46 -55 -59q-206 -48 -330 -100q-13 -5 -15 -20q0 -13 13 -23q51 -33 167 -125q38 -39 117 -116q79 -73 156 -73h51v-144z" />
    <glyph glyph-name="uniFE4E" unicode="&#xfe4e;" horiz-adv-x="442" 
d="M459 776q-245 -63 -380 -129q-22 -11 -39 -2q-15 7 -15 28q0 31 29 46q140 74 381 131q9 3 17 3q43 0 43 -39q0 -29 -36 -38zM507 601q-206 -48 -330 -100q-13 -5 -15 -20q0 -13 13 -23q117 -90 134 -110q75 -71 76 -144q1 -132 -124 -177q-74 -27 -236 -27h-43v144h30
q101 0 145 3q111 9 111 52q0 34 -94 101q-107 76 -129 117q-13 23 -13 57q-1 74 54 108q147 92 387 136q8 1 19 1q28 0 48.5 -16t21.5 -43q1 -46 -55 -59z" />
    <glyph glyph-name="uni0644" unicode="&#x644;" horiz-adv-x="686" 
d="M685 237q0 -383 -320 -383q-124 0 -198 81q-66 73 -66 184q0 69 18 124q22 69 67 69q47 0 47 -48q0 -18 -7.5 -64t-7.5 -59q0 -58 37 -98q41 -44 127 -44q99 -1 146.5 56.5t43.5 173.5l-15 434q-2 43 19 71q26 25 50 25q59 0 59 -91v-431z" />
    <glyph glyph-name="uniFE4F" unicode="&#xfe4f;" horiz-adv-x="782" 
d="M800 0h-38q-64 0 -91 52q-3 -136 -66 -221q-78 -106 -239 -106q-127 0 -199 82q-65 75 -65 184q0 61 16 114q22 77 68 78q49 0 49 -47q0 -20 -7.5 -61.5t-7.5 -62.5q0 -60 37 -98q44 -44 126 -45q92 -1 141 57q45 55 43 148l-18 612q-1 33 19.5 54.5t46.5 21.5
q58 1 58 -73v-385q0 -160 106 -160h21v-144z" />
    <glyph glyph-name="brokenbar" unicode="&#xfe58;" horiz-adv-x="584" 
d="M319 117q81 24 109 63q33 47 34 152q0 29 -4 85l-21 249q-4 44 17 70q17 24 47 25q24 1 44 -22q15 -18 23 -64l14 -277q2 -42 2 -50q0 -376 -371 -377q-108 0 -108 65q0 47 70 58q48 7 144 23zM228 193q4 45 4 84q0 189 -94 349q-13 27 -14 47q-1 27 16 47t46 20
q67 0 114 -135q45 -128 45 -289q0 -78 -10 -131t-60 -53q-53 0 -47 61z" />
    <glyph glyph-name="section" unicode="&#xfe59;" horiz-adv-x="703" 
d="M321 118q79 21 107 61q33 48 34 153q0 29 -4 85l-21 249q-4 44 17 70q17 24 47 25q24 1 44 -22q15 -18 23 -64l14 -277q7 -132 26 -186q25 -68 89 -68h25v-144h-39q-60 0 -101 36q-41 29 -52 78q-67 -141 -322 -143q-102 0 -103 68q-1 42 64 53q91 16 152 26zM228 193
q4 45 4 84q0 189 -94 349q-13 27 -14 47q-1 27 16 47t46 20q67 0 114 -135q45 -128 45 -289q0 -78 -10 -131t-60 -53q-53 0 -47 61z" />
    <glyph glyph-name="dieresis" unicode="&#xfe5a;" horiz-adv-x="336" 
d="M353 0h-38q-43 0 -83.5 22.5t-51.5 54.5q-40 -77 -157 -77h-41v144h41q61 0 79 37q13 26 11 93l-8 411q-1 32 18 55q17 20 44 20q25 0 44 -18t19 -54v-389q0 -155 92 -155h31v-144z" />
    <glyph glyph-name="copyright" unicode="&#xfe5b;" horiz-adv-x="231" 
d="M230 263q0 -120 -25 -176q-39 -87 -152 -87h-71v144h41q54 0 76 22q16 19 14 84l-8 433q-1 31 16 54.5t46 23.5q25 0 44 -19.5t19 -56.5v-422z" />
    <glyph glyph-name="ordfeminine" unicode="&#x645;" horiz-adv-x="553" 
d="M356 30q-13 0 -53 5q-25 4 -41 4q-26 0 -34 -16q-12 -15 -11 -60l7 -349q1 -25 -17 -46q-13 -15 -35 -16q-48 -1 -51 55l-20 394q-7 153 112 173q-3 20 -3 42q0 77 53 127.5t117 44.5q77 -7 127 -57t50 -127q0 -88 -58 -133q-53 -41 -143 -41zM449 199q0 62 -76 65
q-23 3 -43 -15q-14 -16 -15 -42q-1 -10 3 -21q14 -24 73 -24q54 0 58 37z" />
    <glyph glyph-name="guillemotleft" unicode="&#xfe5c;" horiz-adv-x="719" 
d="M737 0h-41q-87 0 -129 43q-18 -36 -47 -57q-34 -25 -76 -26q-85 -1 -160 92q-55 0 -55 -80v-381q0 -49 -51 -49q-48 0 -50 49l-19 399q-8 161 140 204q20 11 44 39q33 41 51 57q38 28 84 28q79 0 162 -132q26 -42 126 -42h21v-144zM480 100q5 11 5 24q0 27 -18 50.5
t-45 23.5q-20 0 -44 -23q-14 -19 -14 -34q0 -23 27.5 -43t50.5 -20q22 0 38 22z" />
    <glyph glyph-name="logicalnot" unicode="&#xfe5d;" horiz-adv-x="537" 
d="M556 0h-41q-82 0 -124 41q-28 -87 -128 -88q-90 -1 -144 93q-38 -46 -96 -46h-41v144h32q55 0 97 62q64 93 140 93q59 0 105 -48q23 -25 70 -76q41 -31 109 -31h21v-144zM312 110q0 29 -21.5 52.5t-49.5 23.5q-40 0 -40 -50q0 -24 15 -45q22 -25 55 -25q41 0 41 44z" />
    <glyph glyph-name="uniFE5E" unicode="&#xfe5e;" horiz-adv-x="420" 
d="M419 154q0 -74 -41 -122.5t-102 -48.5q-85 0 -138 65q-49 -48 -116 -48h-40v144h22q37 0 59 12q14 8 38 42q46 63 60 78q60 64 116 65q70 1 109 -61q33 -52 33 -126zM321 149q0 30 -14 46q-11 21 -36 21q-29 0 -53 -27q-18 -19 -18 -40q0 -15 22 -29.5t50 -14.5
q49 0 49 44z" />
    <glyph glyph-name="registered" unicode="&#x646;" horiz-adv-x="748" 
d="M747 186q0 -160 -93.5 -257.5t-253.5 -97.5q-147 0 -228 90q-71 78 -71 184q0 60 23 132q28 84 77 84t49 -50q0 -22 -13.5 -68t-13.5 -72q0 -76 57 -118q52 -38 130 -38q110 0 163 55q49 50 49 136q0 34 -14.5 82.5t-14.5 67.5q0 69 67 69q39 0 64 -64q23 -60 23 -135z
M475 504q1 -29 -20.5 -50.5t-49.5 -22.5q-29 -1 -51 21t-22 52q0 22 14 41.5t35 25.5q11 3 24 3q30 1 49.5 -21t20.5 -49z" />
    <glyph glyph-name="overscore" unicode="&#xfe5f;" horiz-adv-x="856" 
d="M875 0h-37q-58 0 -86 26q0 -164 -80 -266q-94 -119 -274 -119q-158 0 -235 104q-61 81 -62 202q0 81 24 134q22 48 61 48q45 0 46 -54q0 -12 -4 -38l-1 -13q-6 -36 -6 -60q0 -87 51 -132t139 -45q111 -1 172 60q57 57 57 160q0 38 -24 95t-24 84q0 26 16 44q21 19 47 19
q24 0 46 -27.5t47 -49.5q41 -28 100 -28h27v-144zM470 347q1 -30 -21 -50.5t-52 -20.5q-27 0 -48 19t-21 52q0 29 19.5 50t49.5 21t51 -21t22 -50z" />
    <glyph glyph-name="degree" unicode="&#xfe60;" horiz-adv-x="355" 
d="M373 0h-42q-120 0 -153 76q-47 -76 -153 -76h-43v144h44q91 0 105 84q10 59 52 59q43 0 50 -59q10 -84 98 -84h42v-144zM254 475q0 -30 -19.5 -50t-51.5 -20q-29 0 -49.5 20.5t-21.5 49.5t20 51q27 21 51 21q30 0 50.5 -21t20.5 -51z" />
    <glyph glyph-name="plusminus" unicode="&#xfe61;" horiz-adv-x="253" 
d="M252 226q1 -94 -50 -154q-59 -72 -172 -72h-48v144h58q91 0 92 66q0 9 -12 57q-7 25 -7 51q0 24 17.5 42.5t41.5 19.5q79 1 80 -154zM215 559q0 -30 -22 -51q-18 -21 -50 -21q-30 0 -50 21t-20 51q-1 28 20.5 49t49.5 22q32 1 50 -22q21 -16 22 -49z" />
    <glyph glyph-name="twosuperior" unicode="&#x648;" horiz-adv-x="499" 
d="M498 172q1 -124 -84 -238q-94 -125 -253 -186q-15 -5 -32 -5q-28 0 -45 16t-17 40q0 41 44 60q104 46 175 112q67 63 87 119q-30 -14 -69 -14q-59 0 -98 33q-47 39 -49 115q-1 66 44 131q48 69 111 69q85 0 135.5 -72.5t50.5 -179.5zM375 212q-5 38 -24.5 58t-41.5 20
q-20 0 -35 -14.5t-15 -34.5q0 -40 56 -40q38 0 60 11z" />
    <glyph glyph-name="threesuperior" unicode="&#xfe62;" horiz-adv-x="573" 
d="M592 0h-102q-63 -208 -327 -315q-10 -2 -31 -5q-29 0 -42 17q-15 14 -15 40q0 43 47 64q192 85 249 201q-101 0 -145 24q-62 34 -63 123q-1 67 43.5 135t109.5 68q76 0 128 -68q44 -58 53 -140h95v-144zM375 136q-3 38 -24 63t-45 25q-18 0 -30.5 -12.5t-12.5 -31.5
q0 -8 1 -14q9 -21 42 -26q8 -2 69 -4z" />
    <glyph glyph-name="acute" unicode="&#x624;" horiz-adv-x="503" 
d="M498 172q1 -124 -84 -238q-94 -125 -253 -186q-15 -5 -32 -5q-28 0 -45 16t-17 40q0 41 44 60q104 46 175 112q67 63 87 119q-30 -14 -69 -14q-59 0 -98 33q-47 39 -49 115q-1 66 44 131q48 69 111 69q85 0 135.5 -72.5t50.5 -179.5zM375 212q-5 38 -24.5 58t-41.5 20
q-20 0 -35 -14.5t-15 -34.5q0 -40 56 -40q38 0 60 11zM393 585l-210 -65q-3 -2 -18 -4q-27 0 -27 24t29 35l37 15q-35 29 -36 72q0 44 38 79q33 31 80 31q30 0 54 -12q24 -15 24 -35q0 -22 -22 -22q3 0 -28 4q-21 3 -32 5q-47 0 -47 -41q0 -45 70 -46q5 0 75 20q6 1 17 3
q34 0 34 -25q0 -26 -38 -38z" />
    <glyph glyph-name="mu1" unicode="&#xfe63;" horiz-adv-x="573" 
d="M592 0h-102q-63 -208 -327 -315q-10 -2 -31 -5q-29 0 -42 17q-15 14 -15 40q0 43 47 64q192 85 249 201q-101 0 -145 24q-62 34 -63 123q-1 67 43.5 135t109.5 68q76 0 128 -68q44 -58 53 -140h95v-144zM375 136q-3 38 -24 63t-45 25q-18 0 -30.5 -12.5t-12.5 -31.5
q0 -8 1 -14q9 -21 42 -26q8 -2 69 -4zM395 530l-209 -68q-4 -1 -19 -3q-26 0 -27 24q-1 21 29 37l37 14q-32 31 -32 72q0 49 33 79.5t82 30.5q32 0 54.5 -12.5t22.5 -33.5q0 -23 -22 -23q-9 0 -27 3q-24 5 -33 5q-46 0 -46 -41q-1 -44 70 -45q7 0 75 18q16 5 19 5
q32 0 33 -25q0 -24 -40 -37z" />
    <glyph glyph-name="paragraph" unicode="&#x647;" horiz-adv-x="470" 
d="M469 183q0 -89 -66 -146q-58 -49 -139 -50q-72 -1 -115 33q-47 37 -47 108q0 40 27 103q19 45 39 73q-49 25 -49 63q0 30 20 52t49 22q96 0 188.5 -82t92.5 -176zM338 168q0 51 -89 93q-37 -52 -37 -87q0 -50 55 -50q29 0 50 12q17 10 21 32z" />
    <glyph glyph-name="middot" unicode="&#xfe64;" horiz-adv-x="559" 
d="M580 0h-45q-83 0 -131 42.5t-53 118.5q-33 -19 -84 -20q-60 -1 -112.5 28.5t-53.5 81.5q-1 85 86 146q46 32 135 89q16 13 51 64q18 26 44 26q49 0 51 -72q0 -7 -8 -83q-5 -45 -6 -96q-1 -74 10 -113q20 -68 73 -68h43v-144zM345 377q-19 -17 -79 -49q-41 -22 -42 -46
q0 -20 50 -20t69 12q-1 35 2 103z" />
    <glyph glyph-name="cedilla" unicode="&#x629;" horiz-adv-x="483" 
d="M481 183q0 -89 -66 -146q-59 -49 -138 -50q-72 -1 -115 33q-47 37 -48 108q0 42 26 103q19 47 40 73q-48 24 -48 63q0 25 17 50q22 24 51 24q97 0 188 -80q93 -83 93 -178zM348 168q0 52 -87 93q-35 -48 -35 -87q0 -50 53 -50q27 0 48 11.5t21 32.5zM392 596
q0 -28 -22 -50t-51 -22q-28 -1 -49 22q-20 16 -20 50q0 29 19.5 49.5t49.5 20.5q31 0 51.5 -21t21.5 -49zM217 596q0 -31 -19.5 -51t-50.5 -21q-27 -1 -49 21t-22 51q0 28 20 49t51 21t50.5 -19.5t19.5 -50.5z" />
    <glyph glyph-name="onesuperior" unicode="&#xfe65;" horiz-adv-x="560" 
d="M580 0h-45q-83 0 -131 42.5t-53 118.5q-33 -19 -84 -20q-60 -1 -112.5 28.5t-53.5 81.5q-1 85 86 146q46 32 135 89q16 13 51 64q18 26 44 26q49 0 51 -72q0 -7 -8 -83q-5 -45 -6 -96q-1 -74 10 -113q20 -68 73 -68h43v-144zM345 377q-19 -17 -79 -49q-41 -22 -42 -46
q0 -20 50 -20t69 12q-1 35 2 103zM520 721q0 -27 -21.5 -49.5t-50.5 -22.5q-27 0 -51 21q-19 22 -20 51t20.5 49.5t50.5 20.5q31 0 51.5 -21.5t20.5 -48.5zM347 721q0 -29 -20.5 -50.5t-50.5 -21.5t-50.5 20.5t-20.5 51.5q-1 27 20 48.5t51 21.5q33 0 50 -21q20 -17 21 -49z
" />
    <glyph glyph-name="ordmasculine" unicode="&#x6c0;" horiz-adv-x="483" 
d="M481 183q0 -89 -66 -146q-59 -49 -138 -50q-72 -1 -115 33q-47 37 -48 108q0 42 26 103q19 47 40 73q-48 24 -48 63q0 25 17 50q22 24 51 24q97 0 188 -80q93 -83 93 -178zM348 168q0 52 -87 93q-35 -48 -35 -87q0 -50 53 -50q27 0 48 11.5t21 32.5zM336 629l-208 -67
q-7 -1 -19 -3q-26 0 -30 24q0 23 32 36l35 15q-33 31 -33 72q0 48 33.5 79t82.5 31q32 0 54.5 -12.5t22.5 -34.5t-20 -22q-13 0 -31 4l-29 4q-48 0 -48 -41q0 -44 72 -45q9 0 72 20q4 0 10.5 0.5t9.5 1.5q30 0 33 -25q0 -24 -39 -37z" />
    <glyph glyph-name="guillemotright" unicode="&#xfe66;" horiz-adv-x="560" 
d="M581 0h-46q-82 0 -130 42.5t-53 118.5q-33 -19 -84 -20q-60 -1 -112 29t-54 81q-2 84 86 146q53 38 137 89q17 15 50 64q18 26 43 26q49 0 51 -72q0 -7 -8 -83q-5 -45 -6 -96q-1 -74 10 -113q20 -68 73 -68h43v-144zM347 377q-16 -16 -80 -49q-41 -22 -41 -46
q0 -20 49 -20q50 0 69 12q-1 35 3 103zM394 682l-209 -68q-6 -1 -19 -3q-27 0 -27 25q0 22 29 35l37 15q-34 29 -36 72q-1 44 38 80q33 31 80 31q27 0 54 -14q24 -13 24 -33q0 -22 -22 -23q-17 -1 -60 8q-46 0 -46 -41q0 -45 69 -45q10 0 74 19q7 1 18 4q34 0 34 -26
q0 -23 -38 -36z" />
    <glyph glyph-name="onequarter" unicode="&#xfe67;" horiz-adv-x="524" 
d="M541 0h-46q-91 0 -139 -32q-38 -26 -38 -70q0 -18 10.5 -45t10.5 -39q0 -55 -49 -55q-64 0 -144 141q-37 66 -46 108q-38 -8 -78 -8h-40v144h41q35 0 63 10v36q0 119 55 174q45 45 116 45q62 0 99 -46q33 -43 33 -107q0 -68 -51 -127q-46 -53 -123 -87q10 -55 35 -85
q16 83 85.5 135t155.5 52h50v-144zM287 249q0 41 -33 45q-36 4 -59 -27q-17 -31 -17 -72q0 -6 2 -26q107 25 107 80z" />
    <glyph glyph-name="onehalf" unicode="&#xfe68;" horiz-adv-x="559" 
d="M558 140q0 -72 -31 -116q-36 -50 -105 -50q-70 0 -171 61q-54 -35 -160 -35h-109v144h116q-23 17 -23 66q-1 80 90 157l-26 22q-24 20 -25 51q0 29 20 52t49 24q14 0 41 -12q334 -206 334 -364zM457 141q-7 32 -77 88l3 -18q0 -49 -36 -90q7 -9 33 -20t40 -13q36 0 38 40
q0 6 -1 13zM287 231q0 25 -15.5 45t-39.5 21q-23 1 -44.5 -24t-22.5 -43q-1 -19 20 -41q17 -17 42 -17q24 0 44 17q16 18 16 42z" />
    <glyph glyph-name="threequarters" unicode="&#x6cc;" horiz-adv-x="854" 
d="M877 406q0 -45 -30 -64q-14 -9 -69 -20q-76 -8 -132 -43.5t-59 -85.5q-1 -21 51 -31q28 -5 85 -16q53 -15 75 -38q25 -26 26 -78q1 -119 -129 -208q-122 -84 -275 -85q-165 -1 -251 94q-67 73 -68 192q0 62 23 138q28 90 80 90q50 0 51 -57q0 -13 -15 -60
q-14 -43 -14 -82q0 -170 210 -171q120 0 202 43q68 36 68 74q0 20 -62 30q-78 11 -116 30q-62 32 -63 111q-1 112 109 206q106 91 226 91q76 0 77 -60z" />
    <glyph glyph-name="questiondown" unicode="&#xfe69;" horiz-adv-x="791" 
d="M810 0h-196q-63 0 -63 -21q0 -18 49 -27q60 -12 86 -27q51 -28 51 -86q0 -100 -114 -166q-97 -55 -205 -56q-156 -1 -241 82q-77 74 -77 203q0 74 16 123q23 75 73 75q51 0 51 -54q0 -19 -9 -55q-7 -30 -8 -59q-1 -177 208 -177q43 0 101 12q79 16 79 43q0 12 -44 26
q-66 22 -83 32q-44 27 -44 73q0 105 82 158q69 45 181 45h107v-144z" />
    <glyph glyph-name="Agrave" unicode="&#x64a;" horiz-adv-x="854" 
d="M877 406q0 -45 -30 -64q-14 -9 -69 -20q-76 -8 -132 -43.5t-59 -85.5q-1 -21 51 -31q28 -5 85 -16q53 -15 75 -38q25 -26 26 -78q1 -119 -129 -208q-122 -84 -275 -85q-165 -1 -251 94q-67 73 -68 192q0 62 23 138q28 90 80 90q50 0 51 -57q0 -13 -15 -60
q-14 -43 -14 -82q0 -170 210 -171q120 0 202 43q68 36 68 74q0 20 -62 30q-78 11 -116 30q-62 32 -63 111q-1 112 109 206q106 91 226 91q76 0 77 -60zM590 -365q0 -31 -21 -51t-52 -21q-28 -1 -49 20.5t-21 51.5q0 29 20.5 49.5t49.5 20.5q31 0 52 -21q17 -17 21 -49z
M416 -365q0 -30 -20.5 -50.5t-50.5 -21.5q-32 -1 -50 21q-20 18 -20 51q0 30 20.5 50t49.5 20t50 -20.5t21 -49.5z" />
    <glyph glyph-name="Aacute" unicode="&#xfe6a;" horiz-adv-x="791" 
d="M810 0h-196q-63 0 -63 -21q0 -18 49 -27q60 -12 86 -27q51 -28 51 -86q0 -100 -114 -166q-97 -55 -205 -56q-156 -1 -241 82q-77 74 -77 203q0 74 16 123q23 75 73 75q51 0 51 -54q0 -19 -9 -55q-7 -30 -8 -59q-1 -177 208 -177q43 0 101 12q79 16 79 43q0 12 -44 26
q-66 22 -83 32q-44 27 -44 73q0 105 82 158q69 45 181 45h107v-144zM590 -514q0 -31 -20 -50.5t-53 -20.5q-28 -1 -49 19.5t-21 51.5q0 29 20.5 50t49.5 21q31 0 52 -21q17 -18 21 -50zM416 -514q0 -31 -20 -50.5t-51 -20.5q-30 -1 -50 19t-20 52q0 30 20.5 50.5t49.5 20.5
t50 -21t21 -50z" />
    <glyph glyph-name="Acircumflex" unicode="&#xfe6b;" horiz-adv-x="355" 
d="M373 0h-42q-120 0 -153 76q-47 -76 -153 -76h-43v144h44q91 0 105 84q10 59 52 59q43 0 50 -59q10 -84 98 -84h42v-144zM333 -194q1 -32 -19 -52t-51 -20q-26 0 -51 21q-20 23 -21 51q0 24 21 51q23 19 51 20t52 -21q18 -23 18 -50zM162 -194q1 -28 -21 -50t-51 -22
q-30 0 -49.5 20t-20.5 52q-1 27 20 51q20 19 50 20q28 1 49.5 -20.5t22.5 -50.5z" />
    <glyph glyph-name="Atilde" unicode="&#xfe6c;" horiz-adv-x="331" 
d="M252 226q1 -94 -50 -154q-59 -72 -172 -72h-48v144h58q91 0 92 66q0 9 -12 57q-7 25 -7 51q0 24 17.5 42.5t41.5 19.5q79 1 80 -154zM328 -194q0 -30 -20.5 -51t-51.5 -21q-27 0 -48 20t-22 52q-1 26 21 51q21 19 49 20q29 1 50.5 -20.5t21.5 -50.5zM155 -194
q0 -30 -20.5 -51t-49.5 -21t-50 21t-22 51q0 25 22 51q21 19 50 20q24 1 49 -21q21 -24 21 -50z" />
    <glyph glyph-name="Adieresis" unicode="&#x626;" horiz-adv-x="854" 
d="M877 406q0 -45 -30 -64q-14 -9 -69 -20q-76 -8 -132 -43.5t-59 -85.5q-1 -21 51 -31q28 -5 85 -16q53 -15 75 -38q25 -26 26 -78q1 -119 -129 -208q-122 -84 -275 -85q-165 -1 -251 94q-67 73 -68 192q0 62 23 138q28 90 80 90q50 0 51 -57q0 -13 -15 -60
q-14 -43 -14 -82q0 -170 210 -171q120 0 202 43q68 36 68 74q0 20 -62 30q-78 11 -116 30q-62 32 -63 111q-1 112 109 206q106 91 226 91q76 0 77 -60zM383 397l-210 -67q-7 -1 -18 -3q-28 0 -28 24q-1 22 29 36l37 13q-35 33 -35 74q0 46 37 79q33 30 79 30q31 0 55 -13
t25 -32q1 -23 -22 -23q-5 0 -29 2q-15 4 -32 4q-46 0 -48 -39q-1 -44 72 -45q9 0 74 20q16 3 18 3q33 0 33 -25q0 -26 -37 -38z" />
    <glyph glyph-name="Aring" unicode="&#xfe6d;" horiz-adv-x="791" 
d="M810 0h-196q-63 0 -63 -21q0 -18 49 -27q60 -12 86 -27q51 -28 51 -86q0 -100 -114 -166q-97 -55 -205 -56q-156 -1 -241 82q-77 74 -77 203q0 74 16 123q23 75 73 75q51 0 51 -54q0 -19 -9 -55q-7 -30 -8 -59q-1 -177 208 -177q43 0 101 12q79 16 79 43q0 12 -44 26
q-66 22 -83 32q-44 27 -44 73q0 105 82 158q69 45 181 45h107v-144zM394 254l-210 -67q-7 -1 -18 -3q-28 0 -28 24q-1 22 29 36l37 13q-35 33 -35 74q0 46 37 79q33 30 79 30q31 0 55 -13t25 -32q1 -23 -22 -23q-5 0 -29 2q-15 4 -32 4q-46 0 -48 -39q-1 -44 72 -45
q9 0 74 20q16 3 18 3q33 0 33 -25q0 -26 -37 -38z" />
    <glyph glyph-name="AE" unicode="&#xfe6e;" horiz-adv-x="355" 
d="M373 0h-42q-120 0 -153 76q-47 -76 -153 -76h-43v144h44q91 0 105 84q10 59 52 59q43 0 50 -59q10 -84 98 -84h42v-144zM287 477l-210 -68q-11 -2 -18 -2q-26 0 -29 23q0 23 32 36l35 15q-33 29 -33 72q0 47 34 78.5t81 31.5q32 0 54.5 -13t22.5 -33q0 -22 -19 -23
q-10 0 -29 3.5t-32 3.5q-47 0 -47 -41q-1 -44 71 -44q1 0 74 19q9 2 19 2q32 0 33 -24q0 -23 -39 -36z" />
    <glyph glyph-name="Ccedilla" unicode="&#xfe6f;" horiz-adv-x="283" 
d="M252 226q1 -94 -50 -154q-59 -72 -172 -72h-48v144h58q91 0 92 66q0 9 -12 57q-7 25 -7 51q0 24 17.5 42.5t41.5 19.5q79 1 80 -154zM271 556l-209 -69q-16 -2 -19 -2q-28 0 -28 23q0 25 31 38l33 13q-31 33 -32 72q-1 47 34 78.5t82 31.5q34 0 53 -13q24 -13 24 -33
q0 -22 -20 -23q-9 0 -30 3q-24 5 -30 5q-47 0 -48 -41q-1 -44 71 -44q9 0 73 19q23 3 20 3q32 0 32 -24q0 -25 -37 -37z" />
    <glyph glyph-name="Ograve" unicode="&#x64e;" 
d="M235 933l-238 -73q-6 0 -10 -1q-27 0 -27 28q0 23 26 31l230 74q5 0 13 2q28 0 32 -30q0 -23 -26 -31z" />
    <glyph glyph-name="Ocircumflex" unicode="&#x650;" 
d="M235 -580l-238 -74q-6 0 -10 -1q-27 0 -27 29q0 23 26 31l230 72q6 4 13 4q28 0 32 -32q0 -21 -26 -29z" />
    <glyph glyph-name="Odieresis" unicode="&#x64f;" 
d="M261 1076q0 -65 -62 -112q21 -17 22 -34q0 -21 -26 -22q-19 -1 -40 19q-135 -72 -192 -73q-33 0 -33 27q0 21 27 27q84 20 149 61q-28 27 -28 64q0 42 33 78t75 36q34 0 54.5 -22.5t20.5 -48.5zM207 1055q0 36 -33 36q-17 0 -31 -16.5t-14 -33.5q0 -26 28 -44q13 3 33 23
q17 20 17 35z" />
    <glyph glyph-name="multiply" unicode="&#xfe73;" 
d="M338 876q0 -65 -62 -112q21 -17 22 -34q0 -21 -26 -22q-19 -1 -40 19q-135 -72 -192 -73q-33 0 -33 27q0 21 27 27q84 20 149 61q-28 27 -28 65q0 41 33 77t75 36q34 0 54.5 -22.5t20.5 -48.5zM284 856q0 35 -33 35q-17 0 -31 -16.5t-14 -33.5q0 -26 28 -44q13 3 33 23
q17 20 17 36z" />
    <glyph glyph-name="Oslash" unicode="&#x64b;" 
d="M229 1060l-238 -75q-6 0 -11 -1q-26 0 -26 29q0 22 25 30l231 74q4 1 14 2q30 0 30 -31q0 -20 -25 -28zM235 933l-238 -73q-6 0 -10 -1q-27 0 -27 28q0 23 26 31l230 74q5 0 13 2q28 0 32 -30q0 -23 -26 -31z" />
    <glyph glyph-name="Uacute" unicode="&#x64d;" 
d="M228 -579l-238 -73q-7 0 -11 -2q-26 0 -26 29q0 23 25 31l232 74q5 2 13 2q30 0 30 -31q0 -18 -25 -30zM233 -698l-237 -73q-6 0 -10 -1q-27 0 -27 28q0 22 26 30l230 74q6 2 13 2q30 0 31 -31q0 -20 -26 -29z" />
    <glyph glyph-name="Ucircumflex" unicode="&#xfe75;" 
d="M305 -136l-238 -73q-6 0 -11 -2q-26 0 -26 29q0 23 25 31l232 74q5 2 13 2q30 0 30 -31q0 -18 -25 -30zM310 -255l-237 -73q-6 0 -10 -1q-27 0 -27 28q0 22 26 30l230 74q6 2 13 2q30 0 31 -31q0 -20 -26 -29z" />
    <glyph glyph-name="Udieresis" unicode="&#x64c;" 
d="M261 1076q0 -65 -62 -112q21 -17 22 -34q0 -21 -26 -22q-19 -1 -40 19q-135 -72 -192 -73q-33 0 -33 27q0 21 27 27q7 2 20 9q22 13 22 41q0 16 -24 16q-17 0 -34 -8q-7 -5 -16 -5q-14 0 -14 15q0 14 12 23q22 26 63 26q34 0 47 -18q9 -15 10 -34q1 -16 -10 -41
q33 13 73 37q-28 27 -28 64q0 42 33 78t75 36q34 0 54.5 -22.5t20.5 -48.5zM207 1055q0 36 -33 36q-17 0 -31 -16.5t-14 -33.5q0 -26 28 -44q13 3 33 23q17 20 17 35z" />
    <glyph glyph-name="Thorn" unicode="&#x651;" 
d="M253 999q1 -45 -21 -79q-26 -39 -69 -39q-42 -1 -57 41q-25 -64 -86 -65q-60 0 -61 80q0 34 15 62q6 18 22 18q19 0 16 -28q-1 -9 -1 -17q0 -38 26 -39q44 -1 57 83q3 25 22 25q15 0 18 -24q2 -63 40 -63q21 0 30 31q2 17 1 48q0 4 -1 9q0 28 20 28q27 0 29 -71z" />
    <glyph glyph-name="igrave" unicode="&#x6e4;" 
d="M340 1044q0 -47 -40 -84q-42 -40 -107 -41q-27 0 -78 4t-75 4q-47 0 -69 -20q-6 -3 -16 -19q-11 -19 -14 -22q-10 -11 -27 -12q-24 -1 -24 24q0 51 33 89q36 42 100 42q43 0 83 -3l81 -7q48 0 81 34.5t50 34.5q22 0 22 -24z" />
    <glyph glyph-name="icircumflex" unicode="&#x652;" 
d="M213 970q0 -51 -33.5 -81t-73.5 -30q-46 0 -70 27.5t-24 69.5q0 55 36 90q29 26 63 27q43 1 69 -25q33 -24 33 -78zM168 960q1 26 -22 39q-17 16 -41 17q-15 1 -32 -19q-14 -14 -14 -33q0 -20 15 -32.5t40 -12.5q53 0 54 41z" />
    <glyph glyph-name="eth" unicode="&#x674;" 
d="M231 928l-208 -68q-3 0 -10 -1h-10q-26 0 -27 23t31 36l35 14q-34 34 -34 72q-1 46 37 81q33 31 79 31q25 0 49 -11q29 -14 29 -36q0 -23 -22 -23q-16 0 -27.5 2.5t-31.5 5.5q-47 0 -47 -41q0 -44 70 -46q11 0 74 20q10 4 20 4q32 0 33 -25q0 -25 -40 -38z" />
    <glyph glyph-name="ograve" unicode="&#x670;" 
d="M129 884q0 -26 -27 -27q-22 0 -24 26l-12 163q-3 36 34 36q29 0 29 -32v-166z" />
    <glyph glyph-name="ocircumflex" unicode="&#xf4;" 
d="M179 952q43 39 69 39q11 0 17 -4q19 -6 19 -24q0 -12 -11 -19q-16 -6 -35 -6q-12 0 -29 3zM149 965l-29 15q-22 7 -43 7q-32 0 -56 -13q-14 -8 -47 -41l3 -17q19 13 40 20q16 3 48 3q18 0 30 -3l19 -11l-28 -37l8 -32l26 30l24 30l55 -19q33 -5 54 -5q34 0 55 11
q48 25 48 63q0 31 -28 54q-31 26 -65 26q-16 0 -26 -6q-14 -3 -25 -13q-24 -22 -63 -62z" />
    <glyph glyph-name="otilde" unicode="&#xf5;" 
d="M256 752q43 39 69 39q11 0 17 -4q19 -6 19 -24q0 -12 -11 -19q-16 -6 -35 -6q-12 0 -29 3zM226 765l-29 15q-22 7 -43 7q-32 0 -56 -13q-14 -8 -47 -41l3 -17q19 13 40 20q16 3 48 3q18 0 30 -3l19 -11l-28 -37l8 -32l26 30l24 30l55 -19q33 -5 54 -5q34 0 55 11
q48 25 48 63q0 31 -28 54q-31 26 -65 26q-16 0 -26 -6q-14 -3 -25 -13q-24 -22 -63 -62z" />
    <glyph glyph-name="ugrave" unicode="&#x649;" horiz-adv-x="854" 
d="M877 406q0 -45 -30 -64q-14 -9 -69 -20q-76 -8 -132 -43.5t-59 -85.5q-1 -21 51 -31q28 -5 85 -16q53 -15 75 -38q25 -26 26 -78q1 -119 -129 -208q-122 -84 -275 -85q-165 -1 -251 94q-67 73 -68 192q0 62 23 138q28 90 80 90q50 0 51 -57q0 -13 -15 -60
q-14 -43 -14 -82q0 -170 210 -171q120 0 202 43q68 36 68 74q0 20 -62 30q-78 11 -116 30q-62 32 -63 111q-1 112 109 206q106 91 226 91q76 0 77 -60z" />
    <glyph glyph-name="uacute" unicode="0" horiz-adv-x="691" 
d="M457 287q0 -48 -35 -81.5t-81 -33.5q-49 0 -83 33.5t-34 81.5q0 49 34 83.5t83 34.5q48 0 82 -35t34 -83z" />
    <glyph glyph-name="ucircumflex" unicode="1" horiz-adv-x="691" 
d="M347 -58q-57 0 -54 75q5 162 -7 311q-12 153 -51 298q-5 20 -7 45q0 74 66 74q55 0 77 -79q51 -188 51 -451q0 -117 -12 -195t-63 -78z" />
    <glyph glyph-name="udieresis" unicode="2" horiz-adv-x="691" 
d="M593 674q1 -108 -44 -176q-52 -80 -154 -80q-78 0 -114 40q26 -146 26 -328q0 -137 -20 -163q-12 -22 -46 -22q-59 0 -58 68q1 250 -6 315q-16 153 -65 308q-7 23 -7 42q-2 66 69 67q30 0 49 -24q13 -21 27 -55q21 -54 51 -78.5t88 -24.5q82 0 83 109q0 42 19 65
q16 21 40 21q23 0 42 -22q20 -27 20 -62z" />
    <glyph glyph-name="yacute" unicode="3" horiz-adv-x="691" 
d="M666 664q0 -105 -43.5 -167t-119.5 -62q-70 0 -101 51q-34 -68 -99 -68q-43 0 -75 22q29 -125 29 -302q0 -77 -6 -121q-11 -72 -61 -72q-52 0 -52 68q-3 162 -11 251q-14 139 -51 244q-14 43 -46 128q-6 22 -6 39q0 69 67 70q43 0 76 -79q18 -44 49 -71q35 -32 61 -32
q66 0 66 109q0 37 20 54q13 19 39 20q28 1 44 -26q13 -22 13 -52q0 -46 6 -63q10 -25 43 -25q49 -1 49 88q0 71 51 72q28 1 44 -25q14 -22 14 -51z" />
    <glyph glyph-name="thorn" unicode="4" horiz-adv-x="691" 
d="M598 446q-69 -56 -172 -57q-110 0 -175 41q24 -142 25 -289q1 -76 -8 -124q-6 -40 -14 -50q-12 -22 -44 -22q-57 0 -59 68l-8 280q-19 162 -70 289q-10 24 -10 48q0 69 68 69q33 0 70 -62q45 -75 81 -83q-5 27 -5 43q-1 67 44.5 119.5t106.5 52.5q68 0 109 -30
q37 -27 37 -51q0 -37 -37 -37q-14 0 -31 8q-22 5 -53 5t-48 -19q-19 -22 -20 -51q-1 -34 23 -54t58 -20q33 0 72.5 18t55.5 20q44 0 45 -46q1 -34 -41 -66z" />
    <glyph glyph-name="ydieresis" unicode="5" horiz-adv-x="691" 
d="M622 187q0 -104 -60 -172q-47 -54 -108 -54q-71 0 -109 47q-45 -67 -121 -67q-76 -1 -119 62q-40 58 -40 143q-1 190 186 434l-22 18q-23 20 -24 52q-1 27 21 49t50 22q29 0 52 -20q142 -124 218 -257.5t76 -256.5zM508 207q0 63 -62 164q-52 82 -120 144
q-64 -82 -108 -170q-49 -96 -49 -152q0 -80 60 -81q39 0 61.5 34t42.5 34q24 0 46.5 -33t59.5 -33q69 0 69 93z" />
    <glyph glyph-name="Amacron" unicode="6" horiz-adv-x="691" 
d="M649 461q0 -47 -106 -113q-185 -117 -304 -289q-26 -39 -79 -117q-25 -35 -61 -36q-46 0 -46 51q0 20 6 33q61 159 208 317q-50 12 -92 60q-51 59 -52 136q-1 102 64 168.5t167 67.5q52 1 91.5 -23.5t40.5 -58.5q1 -29 -37 -37q-21 -4 -80 -5q-118 -3 -123 -102
q-1 -31 36 -57t85 -26q39 0 117 43.5t103 43.5q62 0 62 -56z" />
    <glyph glyph-name="amacron" unicode="7" horiz-adv-x="691" 
d="M606 592q-66 -100 -126 -273t-71 -293q-6 -66 -64 -67q-55 -1 -61 67q-11 121 -70.5 294t-125.5 272q-26 39 -26 78q0 26 14 45.5t40 19.5q40 0 79 -57q135 -200 153 -394q26 200 151 394q38 57 80 57q25 0 40 -20t15 -46q0 -36 -28 -77z" />
    <glyph glyph-name="Abreve" unicode="8" horiz-adv-x="691" 
d="M87 109q60 87 123 261q61 166 74 302q6 67 63 67t62 -67q9 -116 70 -292t126 -271q26 -39 28 -80q0 -27 -16 -45.5t-38 -18.5q-43 0 -81 56q-133 200 -153 395q-24 -200 -151 -395q-38 -57 -78 -57q-21 0 -41 19q-14 18 -14 47q0 40 26 79z" />
    <glyph glyph-name="abreve" unicode="9" horiz-adv-x="691" 
d="M551 29q0 -76 -68 -77q-62 -1 -94 169q-20 109 -22 218q-156 0 -216 52q-49 42 -50 133t57 162q60 75 150 75q175 1 175 -289q0 -162 18 -255q12 -67 33 -116q17 -42 17 -72zM364 483q0 140 -70 140q-31 0 -55 -23q-23 -29 -23 -59q-1 -60 102 -60q29 0 46 2z" />
    <glyph glyph-name="Aogonek" unicode="&#x200c;" 
d="M19 692v-840h-38v840h38z" />
    <glyph glyph-name="aogonek" unicode="&#x200d;" 
d="M19 -148h-38v746l-72 -73l-27 27l92 90l-92 91l27 26l91 -92l91 92l27 -26l-92 -91l92 -90l-27 -27l-72 73v-746z" />
    <glyph glyph-name="Cacute" unicode="&#x200e;" 
d="M231 643l-117 -114l-26 26l74 70h-143v-773h-38v811h181l-74 70l26 26z" />
    <glyph glyph-name="cacute" unicode="&#x200f;" 
d="M19 -148h-38v773h-143l73 -70l-26 -26l-116 114l116 116l26 -26l-73 -70h181v-811z" />
    <glyph glyph-name="Ccircumflex" unicode="&#x61f;" horiz-adv-x="417" 
d="M380 400h-91q0 113 -81 115q-38 1 -59 -25q-16 -19 -17 -43q-1 -25 11 -42l46 -50q17 -19 33 -40q8 -10 19 -32l12 -45l5 -64h-88q0 34 -5 49q-1 20 -11 37q-2 7 -13 19q-6 8 -31 33q-39 37 -52 57q-20 33 -21 74q-1 72 48.5 113t118.5 41q68 0 116 -37q42 -32 49 -70
l7 -38zM272 56q0 -21 -18.5 -38.5t-43.5 -17.5q-61 0 -61 56q0 51 61 52q61 2 62 -52z" />
    <glyph glyph-name="ccircumflex" unicode="!" horiz-adv-x="242" 
d="M165 391l-21 -211h-49l-22 211v203h92v-203zM189 62q0 -62 -69 -62q-67 0 -67 62q0 56 67 56q69 0 69 -56z" />
    <glyph glyph-name="Cdot" unicode="." horiz-adv-x="290" 
d="M214 61q0 -61 -69 -61q-68 0 -68 61q0 56 68 56q69 1 69 -56z" />
    <glyph glyph-name="cdot" unicode="&#x60c;" horiz-adv-x="267" 
d="M201 57q1 -57 -67 -57t-68 57q0 102 6 127q18 74 97 79v-32q-35 -6 -52 -31q-12 -25 -12 -79q95 0 96 -64z" />
    </font>
</defs>
</svg>
